Tags
Language
Tags

Tangerine Dream - Live Miles (1988) [Reissue 2003] (Repost)

Posted By: gribovar
Tangerine Dream - Live Miles (1988) [Reissue 2003] (Repost)

Tangerine Dream - Live Miles (1988) [Reissue 2003]
EAC Rip | APE (image+.cue+log) - 395 MB | MP3 CBR 320 kbps (LAME 3.93) - 134 MB | Covers - 36 MB
Genre: Traditional Electronic, Berlin School | RAR 3% Rec. | Label: Sanctuary Records (CMRCD724)

Live Miles consists of two parts, which were both recorded live. "Livemiles I" was recorded during the American tour of 1986, while "Livemiles II" was captured at a concert to commemorate the 750th anniversary of Berlin. As usual with TD, the audience had no clue of what they were going to experience while attending one of those concerts. During that era it was rather common for TD to improvise much of the music on the spot. So when you listen to a live record of TD you mostly hear new music that isn't available as a studio version. The extended pieces displayed on Live Miles cover many musical moods and textures throughout the playing time of almost half an hour: from slow and haunting, through up-tempo and uplifting; from driving and percussive, to grand and majestic. It's all present on both tracks!

Tracklist:
01. Livemiles I (Albuquerque Concert)
02. Livemiles II (Berlin Concert)

Total time: 57:05

Exact Audio Copy V0.99 prebeta 5 from 4. May 2009

EAC extraction logfile from 6. December 2009, 1:45

Tangerine Dream / Live Miles

Used drive : ASUS DRW-1814BL Adapter: 0 ID: 0

Read mode : Secure
Utilize accurate stream : Yes
Defeat audio cache : Yes
Make use of C2 pointers : No

Read offset correction : 6
Overread into Lead-In and Lead-Out : No
Fill up missing offset samples with silence : Yes
Delete leading and trailing silent blocks : No
Null samples used in CRC calculations : Yes
Used interface : Native Win32 interface for Win NT & 2000

Used output format : Internal WAV Routines
Sample format : 44.100 Hz; 16 Bit; Stereo


TOC of the extracted CD

Track | Start | Length | Start sector | End sector
––––––––––––––––––––––––––––-
1 | 0:00.00 | 29:54.20 | 0 | 134569
2 | 29:54.20 | 27:10.54 | 134570 | 256873


Range status and errors

Selected range

Filename D:\EAC\Tangerine Dream - Live Miles.wav

Peak level 82.8 %
Range quality 99.9 %
Test CRC 83ACEE88
Copy CRC 83ACEE88
Copy OK

No errors occurred


AccurateRip summary

Track 1 accurately ripped (confidence 2) [2D02FD6A]
Track 2 accurately ripped (confidence 2) [DEDE62D3]

All tracks accurately ripped

End of status report

[CUETools log; Date: 12.11.2017 13:07:36; Version: 2.1.4]
[CTDB TOCID: brY5VK2iw.D0eJMrK8rQ1W6fKvc-] found.
Track | CTDB Status
1 | (12/12) Accurately ripped
2 | (12/12) Accurately ripped
[AccurateRip ID: 0005f914-000fdd93-190d6002] found.
Track [ CRC | V2 ] Status
01 [2d02fd6a|af98a919] (04+05/12) Accurately ripped
02 [dede62d3|f6662dab] (04+05/12) Accurately ripped
Offsetted by -664:
01 [25d545d6] (03/12) Accurately ripped
02 [3002771f] (03/12) Accurately ripped

Track Peak [ CRC32 ] [W/O NULL] [ LOG ]
– 82,8 [83ACEE88] [3EC5410C] CRC32
01 82,8 [F92632C5] [CF086906]
02 80,6 [94B7EDA6] [DA8B219F]

Thanks to the original releaser