Tags
Language
Tags

Tangerine Dream - Logos Live (1982) [Definitive Edition 1995] (Repost)

Posted By:
Tangerine Dream - Logos Live (1982) [Definitive Edition 1995] (Repost)

Tangerine Dream - Logos Live (1982) [Definitive Edition 1995]
EAC Rip | FLAC (image+.cue+log) - 329 MB | MP3 CBR 320 kbps (LAME 3.93) - 123 MB | Covers (3 MB) included
Genre: Traditional Electronic, Berlin School | RAR 3% Rec. | Label: Virgin Records (7243 8 39445 2 1)

From mid October to late November 1982, TD toured in Europe performing 31 gigs at all in Austria, Hungary, Yugoslavia, the UK, Belgium, West and East Germany. The concert at the Dominion Theatre in London was released only a few weeks after on the record Logos Live. According to Johannes Schmoelling, this is one of his favourite albums. He considers "the live concept and the smooth transition between one idea and the next to be the key of the album's success." In 1995 Virgin re-released the album on CD in the so-called "Definitive Edition" series, featuring the original front cover artwork. For this release, the two compositions Logos, Part One and Logos, Part Two have been mixed together, forming the track Logos of some 45 minutes length.

Tracklist:
01. Logos
02. Dominion

Total time: 50:52

Exact Audio Copy V0.99 prebeta 4 from 23. January 2008

EAC extraction logfile from 27. April 2009, 19:24

Tangerine Dream / Logos (Live at the Domion, London1982)

Used drive : LITE-ON DVDRW LH-20A1H Adapter: 0 ID: 0

Read mode : Secure
Utilize accurate stream : Yes
Defeat audio cache : Yes
Make use of C2 pointers : No

Read offset correction : 6
Overread into Lead-In and Lead-Out : No
Fill up missing offset samples with silence : Yes
Delete leading and trailing silent blocks : No
Null samples used in CRC calculations : Yes
Used interface : Native Win32 interface for Win NT & 2000

Used output format : User Defined Encoder
Selected bitrate : 1024 kBit/s
Quality : High
Add ID3 tag : No
Command line compressor : C:\Programs\flac\bin\flac.exe
Additional command line options : -V -8 %s


TOC of the extracted CD

Track | Start | Length | Start sector | End sector
––––––––––––––––––––––––––––-
1 | 0:00.00 | 45:06.72 | 0 | 203021
2 | 45:06.72 | 5:44.65 | 203022 | 228886


Range status and errors

Selected range

Filename D:\My Music\New\Tangerine Dream - 1982 - Logos\Tangerine Dream - 1982 - Logos.wav

Peak level 99.9 %
Range quality 100.0 %
Test CRC 95B0F512
Copy CRC 95B0F512
Copy OK

No errors occurred


AccurateRip summary

Track 1 accurately ripped (confidence 10) [9EA80AC0]
Track 2 accurately ripped (confidence 11) [AE6E002D]

All tracks accurately ripped

End of status report

[CUETools log; Date: 13.11.2017 15:58:21; Version: 2.1.4]
[CTDB TOCID: H4I8yMPHCU8ljnXiFGvPwXPDr7k-] found.
Track | CTDB Status
1 | ( 95/131) Accurately ripped, or (35/131) differs in 1 samples @25:05:66
2 | (130/131) Accurately ripped
[AccurateRip ID: 00069725-0010ac62-130beb02] found.
Track [ CRC | V2 ] Status
01 [9ea80ac0|a18606f1] (029+034/105) Accurately ripped
02 [ae6e002d|5e2ddebe] (031+033/105) Accurately ripped
Offsetted by -135:
01 [af601d59] (002/105) Accurately ripped
02 [864dcf7a] (002/105) Accurately ripped
Offsetted by -1358:
01 [77c5b895] (000/105) No match (V2 was not tested)
02 [8dd5bb1a] (000/105) No match (V2 was not tested)
Offsetted by -42:
01 [2a8451f2] (000/105) No match (V2 was not tested)
02 [f2aed6b4] (010/105) Accurately ripped
Offsetted by -30:
01 [25874c8c] (000/105) No match (V2 was not tested)
02 [08543a36] (000/105) No match (V2 was not tested)

Track Peak [ CRC32 ] [W/O NULL] [ LOG ]
– 99,9 [95B0F512] [761D2D77] CRC32
01 99,9 [E5ACB12B] [907EF496]
02 92,0 [7DE9BA08] [F86F4CAD]

Thanks to Scrappy Rocky