Subcategories

Tangerine Dream - Melrose (1990)

Posted By: gribovar
Tangerine Dream - Melrose (1990)

Tangerine Dream - Melrose (1990)
EAC Rip | FLAC (image+.cue+log) - 352 MB | MP3 CBR 320 kbps (LAME 3.93) - 140 MB | Covers - 32 MB
Genre: Traditional Electronic, Berlin School | RAR 3% Rec. | Label: Private Music (261 105)

Electronic music seems to have been all the rage, even back in the early '90s, but the Dream (aka Citrus Slumber) has been the innovative force behind much of the John Tesh like synth patterns played on new age stations during that time. You might think the band (comprised of keyboardist-guitarist Edgar Froese, his son Jerome Froese, and keyboardist Paul Haslinger) would choose to rest on its many laurels after so many years, but Melrose rocks as hard as synth created music can, picking up where their previous, very engaging disc, Lily on the Beach, left off. Los Angeles imagery abounds here, as on the rhythmic title cut (the only one to feature sax) and the hypnotic "Rolling Down Cahuenga." Once again, the happy upbeat sequences are more than offset by more reflective ballads like "Electric Lion." While some of the tracks tend to carry on a bit too long, the textures are generally interesting enough to keep things entertaining. If there were more sax, TD's music could be considered an offshoot of smooth jazz. But it's great as it is - smart, hip machine oriented sounds from masterful players and producers.

Tracklist:
01. Melrose
02. Three Bikes In The Sky
03. Dolls In The Shadow
04. Yucatan
05. Electric Lion
06. Rolling Down Cahuenga
07. Art Of Vision
08. Desert Train
09. Cool At Heart

Total time: 59:27

Exact Audio Copy V0.99 prebeta 4 from 23. January 2008

EAC extraction logfile from 18. January 2009, 9:51

Tangerine Dream / Melrose

Used drive : TEAC CD-W540E Adapter: 1 ID: 1

Read mode : Secure
Utilize accurate stream : Yes
Defeat audio cache : Yes
Make use of C2 pointers : No

Read offset correction : 686
Overread into Lead-In and Lead-Out : No
Fill up missing offset samples with silence : Yes
Delete leading and trailing silent blocks : No
Null samples used in CRC calculations : Yes
Used interface : Native Win32 interface for Win NT & 2000

Used output format : Internal WAV Routines
Sample format : 44.100 Hz; 16 Bit; Stereo


TOC of the extracted CD

Track | Start | Length | Start sector | End sector
––––––––––––––––––––––––––––-
1 | 0:00.32 | 5:47.60 | 32 | 26116
2 | 5:48.17 | 6:02.13 | 26117 | 53279
3 | 11:50.30 | 5:11.05 | 53280 | 76609
4 | 17:01.35 | 5:18.22 | 76610 | 100481
5 | 22:19.57 | 8:18.23 | 100482 | 137854
6 | 30:38.05 | 6:45.57 | 137855 | 168286
7 | 37:23.62 | 5:33.33 | 168287 | 193294
8 | 42:57.20 | 10:19.47 | 193295 | 239766
9 | 53:16.67 | 6:09.63 | 239767 | 267504


Range status and errors

Selected range

Filename D:\EAC\Tangerine Dream - Melrose.wav

Peak level 100.0 %
Range quality 99.9 %
Test CRC 519480DA
Copy CRC 519480DA
Copy OK

No errors occurred


AccurateRip summary

Track 1 accurately ripped (confidence 10) [F2966572]
Track 2 accurately ripped (confidence 10) [842A3C9F]
Track 3 accurately ripped (confidence 10) [CBAF6C8D]
Track 4 accurately ripped (confidence 10) [57648CFC]
Track 5 accurately ripped (confidence 10) [01105495]
Track 6 accurately ripped (confidence 10) [B52161A0]
Track 7 accurately ripped (confidence 10) [70B1D727]
Track 8 accurately ripped (confidence 10) [58F17A50]
Track 9 accurately ripped (confidence 10) [1009DFE4]

All tracks accurately ripped

End of status report

[CUETools log; Date: 15.10.2017 23:34:46; Version: 2.1.4]
Pregap length 00:00:32.
[CTDB TOCID: u3St4TFp1gUxkhP8iquNbkIIB4s-] found.
Track | CTDB Status
1 | (96/96) Accurately ripped
2 | (96/96) Accurately ripped
3 | (96/96) Accurately ripped
4 | (96/96) Accurately ripped
5 | (95/96) Accurately ripped
6 | (96/96) Accurately ripped
7 | (95/96) Accurately ripped
8 | (96/96) Accurately ripped
9 | (96/96) Accurately ripped
[AccurateRip ID: 0013467e-008f83e0-690dee09] found.
Track [ CRC | V2 ] Status
01 [f2966572|63a29fb6] (049+065/119) Accurately ripped
02 [842a3c9f|cab5dab6] (048+066/119) Accurately ripped
03 [cbaf6c8d|8a61cbab] (049+065/119) Accurately ripped
04 [57648cfc|af87f80f] (049+066/120) Accurately ripped
05 [01105495|e0f4cf14] (049+065/119) Accurately ripped
06 [b52161a0|bcf0d31c] (049+063/117) Accurately ripped
07 [70b1d727|28b23a2c] (048+066/119) Accurately ripped
08 [58f17a50|1c0b3cca] (048+063/116) Accurately ripped
09 [1009dfe4|dbb5d944] (049+065/119) Accurately ripped
Offsetted by -669:
01 [d46c3696] (000/119) No match (V2 was not tested)
02 [fbd6eccb] (000/119) No match (V2 was not tested)
03 [88741a0e] (000/119) No match (V2 was not tested)
04 [fc81ee48] (000/120) No match (V2 was not tested)
05 [ca9ddcb0] (000/119) No match (V2 was not tested)
06 [e372a40e] (000/117) No match (V2 was not tested)
07 [4bd9bdd5] (000/119) No match (V2 was not tested)
08 [0f149204] (000/116) No match (V2 was not tested)
09 [5d6a73d3] (000/119) No match (V2 was not tested)
Offsetted by -30:
01 [9d6e9f0a] (000/119) No match (V2 was not tested)
02 [5950f9e7] (000/119) No match (V2 was not tested)
03 [b2dbd4c3] (000/119) No match (V2 was not tested)
04 [b2998704] (000/120) No match (V2 was not tested)
05 [1b525f47] (000/119) No match (V2 was not tested)
06 [3eab56d4] (000/117) No match (V2 was not tested)
07 [897231db] (000/119) No match (V2 was not tested)
08 [1fad0648] (000/116) No match (V2 was not tested)
09 [f91ad54e] (000/119) No match (V2 was not tested)

Track Peak [ CRC32 ] [W/O NULL] [ LOG ]
– 99,9 [519480DA] [2943E1C8] CRC32
01 99,9 [534CA5D2] [17CDABA8]
02 99,0 [816E1ED4] [D5F05D1C]
03 99,9 [5C12A1CB] [67C22C59]
04 99,7 [44170296] [A12CC2AE]
05 97,3 [96CADB27] [0AFE25B5]
06 78,9 [1BB5147D] [1D96F829]
07 85,5 [7C05AAC8] [C51D5F5B]
08 87,6 [DEEEB18F] [94595433]
09 33,3 [C86BBDC4] [0BD0A99F]

Thanks to Witaly70

See also: