Tags
Language
Tags

Tangerine Dream - Music For Sports: Cool Races (2009)

Posted By: gribovar
Tangerine Dream - Music For Sports: Cool Races (2009)

Tangerine Dream - Music For Sports: Cool Races (2009)
EAC Rip | FLAC (tracks+.cue+log) - 470 MB | MP3 CBR 320 kbps (LAME 3.93) - 157 MB | Covers - 140 MB
Genre: Progressive Electronic | RAR 3% Rec. | Label: Eastgate Music (232624)

It's very difficult to recommend this release to any serious Tangerine Dream fan. Why? Simply because all of these tracks have been released before on other compilations of TD Eastgate/TDI releases, making this a compilation of other compilations. It's a tricky business, but that's what it is, business. There has been no further remastering of the sound - which was excellent in the first place - and the only thing that's really "new" here is the digipack and its design. It's also difficult to recommend this set to those new to TD, simply because there is so much other material that's more cohesive and more important than what's here, from Edgar Froese's various incarnations of the band.

Tracklist:
01. Talking To Maddox
02. Ca Va-Ca Marche-Ca Ira Encore
03. The Last Goal
04. Optical Race
05. The First Curve
06. Marakesh
07. A World Away From Gagaland
08. Thunderheads
09. Down To Barstow
10. Heatwave City
11. Road To Odessa

Total time: 01:06:54

Exact Audio Copy V1.3 from 2. September 2016

EAC extraction logfile from 21. November 2019, 18:58

Tangerine Dream ‎ / Music For Sports - Cool Races

Used drive : PIONEER DVD-RW DVR-221L Adapter: 2 ID: 0

Read mode : Secure
Utilize accurate stream : Yes
Defeat audio cache : Yes
Make use of C2 pointers : No

Read offset correction : 6
Overread into Lead-In and Lead-Out : No
Fill up missing offset samples with silence : Yes
Delete leading and trailing silent blocks : No
Null samples used in CRC calculations : Yes
Used interface : Installed external ASPI interface
Gap handling : Appended to next track

Used output format : User Defined Encoder
Selected bitrate : 768 kBit/s
Quality : High
Add ID3 tag : No
Command line compressor : C:\Program Files\Exact Audio Copy\Flac\flac.exe
Additional command line options : -8 -V -T "ARTIST=%artist%" -T "TITLE=%title%" -T "ALBUM=%albumtitle%" -T "DATE=%year%" -T "TRACKNUMBER=%tracknr%" -T "GENRE=%genre%" %source%


TOC of the extracted CD

Track | Start | Length | Start sector | End sector
––––––––––––––––––––––––––––-
1 | 0:00.00 | 8:37.01 | 0 | 38775
2 | 8:37.01 | 5:01.19 | 38776 | 61369
3 | 13:38.20 | 6:23.29 | 61370 | 90123
4 | 20:01.49 | 3:29.66 | 90124 | 105864
5 | 23:31.40 | 4:06.09 | 105865 | 124323
6 | 27:37.49 | 8:21.51 | 124324 | 161949
7 | 35:59.25 | 7:00.56 | 161950 | 193505
8 | 43:00.06 | 7:28.22 | 193506 | 227127
9 | 50:28.28 | 5:28.42 | 227128 | 251769
10 | 55:56.70 | 5:39.36 | 251770 | 277230
11 | 61:36.31 | 5:17.37 | 277231 | 301042


Track 1

Filename C:\EM archive\Tangerine Dream - Cool Races\01 - Talking To Maddox.wav

Pre-gap length 0:00:02.00

Peak level 99.9 %
Extraction speed 4.7 X
Track quality 100.0 %
Test CRC 165BEBA0
Copy CRC 165BEBA0
Accurately ripped (confidence 9) [749A73EC] (AR v2)
Copy OK

Track 2

Filename C:\EM archive\Tangerine Dream - Cool Races\02 - Ca Va-Ca Marche-Ca Ira Encore.wav

Peak level 98.8 %
Extraction speed 5.2 X
Track quality 100.0 %
Test CRC 347B181A
Copy CRC 347B181A
Accurately ripped (confidence 9) [24E42D3B] (AR v2)
Copy OK

Track 3

Filename C:\EM archive\Tangerine Dream - Cool Races\03 - The Last Goal.wav

Peak level 89.1 %
Extraction speed 5.8 X
Track quality 100.0 %
Test CRC A281B7CD
Copy CRC A281B7CD
Accurately ripped (confidence 9) [FC5ED796] (AR v2)
Copy OK

Track 4

Filename C:\EM archive\Tangerine Dream - Cool Races\04 - Optical Race.wav

Peak level 98.6 %
Extraction speed 5.8 X
Track quality 100.0 %
Test CRC 1A74AF10
Copy CRC 1A74AF10
Accurately ripped (confidence 9) [35149E9B] (AR v2)
Copy OK

Track 5

Filename C:\EM archive\Tangerine Dream - Cool Races\05 - The First Curve.wav

Peak level 98.6 %
Extraction speed 6.2 X
Track quality 100.0 %
Test CRC 8D4A75F7
Copy CRC 8D4A75F7
Accurately ripped (confidence 9) [CD38AABF] (AR v2)
Copy OK

Track 6

Filename C:\EM archive\Tangerine Dream - Cool Races\06 - Marakesh.wav

Peak level 98.6 %
Extraction speed 7.0 X
Track quality 100.0 %
Test CRC A61476E1
Copy CRC A61476E1
Accurately ripped (confidence 9) [9C45C449] (AR v2)
Copy OK

Track 7

Filename C:\EM archive\Tangerine Dream - Cool Races\07 - A World Away From Gagaland.wav

Peak level 99.9 %
Extraction speed 7.4 X
Track quality 100.0 %
Test CRC 22015BD7
Copy CRC 22015BD7
Accurately ripped (confidence 9) [0D6F9834] (AR v2)
Copy OK

Track 8

Filename C:\EM archive\Tangerine Dream - Cool Races\08 - Thunderheads.wav

Peak level 98.6 %
Extraction speed 7.9 X
Track quality 100.0 %
Test CRC D5801814
Copy CRC D5801814
Accurately ripped (confidence 9) [C002F314] (AR v2)
Copy OK

Track 9

Filename C:\EM archive\Tangerine Dream - Cool Races\09 - Down To Barstow.wav

Peak level 87.0 %
Extraction speed 8.0 X
Track quality 100.0 %
Test CRC A3A0DE44
Copy CRC A3A0DE44
Accurately ripped (confidence 9) [D35EF2F9] (AR v2)
Copy OK

Track 10

Filename C:\EM archive\Tangerine Dream - Cool Races\10 - Heatwave City.wav

Peak level 97.7 %
Extraction speed 8.2 X
Track quality 100.0 %
Test CRC 384C6FD6
Copy CRC 384C6FD6
Accurately ripped (confidence 9) [593455DA] (AR v2)
Copy OK

Track 11

Filename C:\EM archive\Tangerine Dream - Cool Races\11 - Road To Odessa.wav

Peak level 97.7 %
Extraction speed 8.5 X
Track quality 100.0 %
Test CRC 2A09183F
Copy CRC 2A09183F
Accurately ripped (confidence 9) [540C92C1] (AR v2)
Copy OK


All tracks accurately ripped

No errors occurred

End of status report

–– CUETools DB Plugin V2.1.6

[CTDB TOCID: ANeyLi33Rpm_RHyPYseY.ma._gk-] found
Submit result: ANeyLi33Rpm_RHyPYseY.ma._gk- has been confirmed
Track | CTDB Status
1 | (9/9) Accurately ripped
2 | (9/9) Accurately ripped
3 | (9/9) Accurately ripped
4 | (9/9) Accurately ripped
5 | (9/9) Accurately ripped
6 | (9/9) Accurately ripped
7 | (9/9) Accurately ripped
8 | (9/9) Accurately ripped
9 | (9/9) Accurately ripped
10 | (9/9) Accurately ripped
11 | (9/9) Accurately ripped


==== Log checksum DFF0C01928395E724A168760BDCFBCD154AF6689BADC7164DE4050436FB234F9 ====

[CUETools log; Date: 23.11.2019 14:12:44; Version: 2.1.4]
[CTDB TOCID: ANeyLi33Rpm_RHyPYseY.ma._gk-] found.
Track | CTDB Status
1 | (10/10) Accurately ripped
2 | (10/10) Accurately ripped
3 | (10/10) Accurately ripped
4 | (10/10) Accurately ripped
5 | (10/10) Accurately ripped
6 | (10/10) Accurately ripped
7 | (10/10) Accurately ripped
8 | (10/10) Accurately ripped
9 | (10/10) Accurately ripped
10 | (10/10) Accurately ripped
11 | (10/10) Accurately ripped
[AccurateRip ID: 001bf87f-00f1229b-8d0fad0b] found.
Track [ CRC | V2 ] Status
01 [a83f356f|749a73ec] (03+09/12) Accurately ripped
02 [93bc8792|24e42d3b] (03+09/12) Accurately ripped
03 [0e55a49d|fc5ed796] (03+09/12) Accurately ripped
04 [ee32dff1|35149e9b] (03+09/12) Accurately ripped
05 [f2f95697|cd38aabf] (03+09/12) Accurately ripped
06 [9de5dca8|9c45c449] (03+09/12) Accurately ripped
07 [9c9af3cd|0d6f9834] (03+09/12) Accurately ripped
08 [c330f44c|c002f314] (03+09/12) Accurately ripped
09 [b51ca111|d35ef2f9] (03+09/12) Accurately ripped
10 [4fdfe565|593455da] (03+09/12) Accurately ripped
11 [0a1880a6|540c92c1] (03+09/12) Accurately ripped

Track Peak [ CRC32 ] [W/O NULL] [ LOG ]
– 99,9 [A8D19CE1] [E1136DFF]
01 99,9 [165BEBA0] [7F35C7F4] CRC32
02 98,8 [347B181A] [BCC63799] CRC32
03 89,1 [A281B7CD] [0CDFE0F6] CRC32
04 98,6 [1A74AF10] [F6F4D177] CRC32
05 98,6 [8D4A75F7] [163929AA] CRC32
06 98,6 [A61476E1] [913B8F98] CRC32
07 99,9 [22015BD7] [EAF3E82C] CRC32
08 98,6 [D5801814] [516F3D04] CRC32
09 87,0 [A3A0DE44] [37D666C8] CRC32
10 97,7 [384C6FD6] [0F87ACA4] CRC32
11 97,7 [2A09183F] [3670DF6E] CRC32

Thanks to rodster 10

See also:
Tangerine Dream - The Electronic Journey (2010) [10CD Box Set]
Tangerine Dream - The Dream Roots Collection [5CD Box Set] (1996)
Tangerine Dream - Electronic Meditation (1970) [Reissue 1996]
Tangerine Dream - Zeit (1972) [Reissue 1996]
Tangerine Dream - Phaedra (1974) [Definitive Edition 1995]
Tangerine Dream - Ricochet (1975) [Definitive Edition 1995]
Tangerine Dream - Stratosfear (1976) [Definitive Edition 1995]
Tangerine Dream - Sorcerer (OST) (1977) [Reissue 2011]
Tangerine Dream - Force Majeure (1979) [Reissue 1995]
Tangerine Dream - Pergamon (1980) [Reissue 1996]
Tangerine Dream - White Eagle (1982) [Reissue 1995]
Tangerine Dream - Logos Live (1982) [Definitive Edition 1995]
Tangerine Dream - Firestarter ...ion Picture Soundtrack] (1984)
Tangerine Dream - Legend (OST) (1986) [Reissue 1995]
Tangerine Dream - Tyger (1987) [Reissue 1996]
Tangerine Dream - Optical Race (1988)
Tangerine Dream - Live Miles (1988) [Reissue 2003]
Tangerine Dream - Lily On The Beach (1989)
Tangerine Dream - Melrose (1990)
Tangerine Dream - Dead Solid Perfect (OST) (1990)
Tangerine Dream - The Park Is Mine (OST) (1991)
Tangerine Dream - Deadly Care (OST) (1992)
Tangerine Dream - Quinoa (1992) [Reissue 2009]
Tangerine Dream - Catch Me If You Can (OST) (1994)
Tangerine Dream - Tyranny Of Beauty (1995)
Tangerine Dream - Goblins' Club (1996)
Tangerine Dream - Zoning (OST) (1996)
Tangerine Dream - The Analogue Space Years 1969-1973 (1998)
Tangerine Dream - The Hollywood Years Vol. 1 (1998)
Tangerine Dream - The Hollywood Years Vol. 2 (1998)
Tangerine Dream - Antique Dreams (2000)
Tangerine Dream - Soundmill Navigator (2000)
Tangerine Dream - The Bootleg Box Set Vol. 1 [7CD] (2003)
Tangerine Dream - Purgatorio (2004)
Tangerine Dream - Arizona Live '92 (2004) [Reissue 2009]
Tangerine Dream - Cleveland - June 24th 1986 (2005)
Tangerine Dream - Blue Dawn (2006)
Tangerine Dream - The Essential Tangerine Dream (2006)
Tangerine Dream - Plays Tangerine Dream (2006)
Tangerine Dream - Views From A Red Train (2008)
Tangerine Dream - Booster (2008)
Tangerine Dream - Booster Vol. 2 (2008)
Tangerine Dream - The Antholog... Space Years Volume One (2008)
Tangerine Dream - DM V (Dream Mixes V) (2010)
Tangerine Dream - The London Eye Concert (2010)
Tangerine Dream - Edgar Allan Poe's The Island Of The Fay (2011)
Tangerine Dream - The Virgin Years 1974-1978 [3CD Box Set] (2011)
Tangerine Dream - The Official...ies Vol.1 [4CD Box Set] (2015)
Edgar Froese - 2 Albums (1974-1995)
Edgar Froese - Ages (1978) [Reissue 1997]
Edgar Froese - Pinnacles (1983)