Tags
Language
Tags

Tangerine Dream - Music For Sports: Power And Motion (2009)

Posted By: gribovar
Tangerine Dream - Music For Sports: Power And Motion (2009)

Tangerine Dream - Music For Sports: Power And Motion (2009)
EAC Rip | FLAC (tracks+.cue+log) - 480 MB | MP3 CBR 320 kbps (LAME 3.93) - 178 MB | Covers - 139 MB
Genre: Progressive Electronic | RAR 3% Rec. | Label: Eastgate Music (232625)

Music For Sports - Power And Motion is the second of a two-part compilation (the first being Music For Sports - Cool Races). It compiles ten tracks from the following albums: Transsiberia (1998, two tracks); Ambient Highway Vol. 1 (2003, one track); Dalinetopia (2004, one track); One Times One (2007, three tracks); The Anthology Decades (2008, three tracks). This compilation contains no new material, but notably two of the tracks originally had been released on solo albums by Edgar Froese.

Tracklist:
01. Daluminacion
02. Sahara Child
03. Russian Soul
04. Siberian Lights
05. Daughters Of Time
06. Gleeful Poets Crying Softly
07. Sadness Of Echnaton Losing The World Child
08. Boat To China
09. Huckebee's Dream
10. Run To Vegas

Total time: 01:15:33

Exact Audio Copy V1.3 from 2. September 2016

EAC extraction logfile from 23. November 2019, 19:26

Tangerine Dream / Music For Sports - Power And Motion

Used drive : PIONEER DVD-RW DVR-221L Adapter: 2 ID: 0

Read mode : Secure
Utilize accurate stream : Yes
Defeat audio cache : Yes
Make use of C2 pointers : No

Read offset correction : 6
Overread into Lead-In and Lead-Out : No
Fill up missing offset samples with silence : Yes
Delete leading and trailing silent blocks : No
Null samples used in CRC calculations : Yes
Used interface : Installed external ASPI interface
Gap handling : Appended to previous track

Used output format : User Defined Encoder
Selected bitrate : 768 kBit/s
Quality : High
Add ID3 tag : No
Command line compressor : C:\Program Files\Exact Audio Copy\Flac\flac.exe
Additional command line options : -8 -V -T "ARTIST=%artist%" -T "TITLE=%title%" -T "ALBUM=%albumtitle%" -T "DATE=%year%" -T "TRACKNUMBER=%tracknr%" -T "GENRE=%genre%" %source%


TOC of the extracted CD

Track | Start | Length | Start sector | End sector
––––––––––––––––––––––––––––-
1 | 0:00.00 | 9:23.07 | 0 | 42231
2 | 9:23.07 | 5:39.53 | 42232 | 67709
3 | 15:02.60 | 4:14.19 | 67710 | 86778
4 | 19:17.04 | 4:01.08 | 86779 | 104861
5 | 23:18.12 | 9:01.23 | 104862 | 145459
6 | 32:19.35 | 8:21.21 | 145460 | 183055
7 | 40:40.56 | 6:25.36 | 183056 | 211966
8 | 47:06.17 | 7:28.66 | 211967 | 245632
9 | 54:35.08 | 10:45.23 | 245633 | 294030
10 | 65:20.31 | 10:12.56 | 294031 | 339986


Track 1

Filename C:\EM archive\Tangerine Dream - Power And Motion\01 - Daluminacion.wav

Pre-gap length 0:00:02.00

Peak level 98.6 %
Extraction speed 3.1 X
Track quality 99.9 %
Test CRC CC4E2A1C
Copy CRC CC4E2A1C
Accurately ripped (confidence 8) [AE7609B4] (AR v2)
Copy OK

Track 2

Filename C:\EM archive\Tangerine Dream - Power And Motion\02 - Sahara Child.wav

Peak level 98.6 %
Extraction speed 3.6 X
Track quality 100.0 %
Test CRC 844667FB
Copy CRC 844667FB
Accurately ripped (confidence 9) [A091FC3B] (AR v2)
Copy OK

Track 3

Filename C:\EM archive\Tangerine Dream - Power And Motion\03 - Russian Soul.wav

Peak level 97.4 %
Extraction speed 3.7 X
Track quality 100.0 %
Test CRC F858C254
Copy CRC F858C254
Accurately ripped (confidence 9) [F18FAEAB] (AR v2)
Copy OK

Track 4

Filename C:\EM archive\Tangerine Dream - Power And Motion\04 - Siberian Lights.wav

Peak level 97.3 %
Extraction speed 3.9 X
Track quality 100.0 %
Test CRC DEB7AAA5
Copy CRC DEB7AAA5
Accurately ripped (confidence 9) [18C49E54] (AR v2)
Copy OK

Track 5

Filename C:\EM archive\Tangerine Dream - Power And Motion\05 - Daughters Of Time.wav

Peak level 97.7 %
Extraction speed 4.6 X
Track quality 100.0 %
Test CRC 948D5407
Copy CRC 948D5407
Accurately ripped (confidence 9) [B84FBD41] (AR v2)
Copy OK

Track 6

Filename C:\EM archive\Tangerine Dream - Power And Motion\06 - Gleeful Poets Crying Softly.wav

Peak level 97.7 %
Extraction speed 4.6 X
Track quality 99.9 %
Test CRC 40B0FCA3
Copy CRC 40B0FCA3
Accurately ripped (confidence 9) [920B48BA] (AR v2)
Copy OK

Track 7

Filename C:\EM archive\Tangerine Dream - Power And Motion\07 - Sadness Of Echnaton Losing The World Child.wav

Peak level 97.7 %
Extraction speed 4.7 X
Track quality 99.9 %
Test CRC 70A1D6EB
Copy CRC 70A1D6EB
Accurately ripped (confidence 9) [5F32AA41] (AR v2)
Copy OK

Track 8

Filename C:\EM archive\Tangerine Dream - Power And Motion\08 - Boat To China.wav

Peak level 98.6 %
Extraction speed 5.1 X
Track quality 99.9 %
Test CRC 204E10A4
Copy CRC 204E10A4
Accurately ripped (confidence 9) [3C5A883F] (AR v2)
Copy OK

Track 9

Filename C:\EM archive\Tangerine Dream - Power And Motion\09 - Huckebee's Dream.wav

Peak level 94.5 %
Extraction speed 5.9 X
Track quality 100.0 %
Test CRC 14976183
Copy CRC 14976183
Accurately ripped (confidence 9) [E5CC2C0A] (AR v2)
Copy OK

Track 10

Filename C:\EM archive\Tangerine Dream - Power And Motion\10 - Run To Vegas.wav

Peak level 98.8 %
Extraction speed 6.2 X
Track quality 100.0 %
Test CRC B22C7740
Copy CRC B22C7740
Accurately ripped (confidence 9) [17DCB422] (AR v2)
Copy OK


All tracks accurately ripped

No errors occurred

End of status report

–– CUETools DB Plugin V2.1.6

[CTDB TOCID: CqEx17inv78K._eD47b.3be50bA-] found
Submit result: CqEx17inv78K._eD47b.3be50bA- has been confirmed
Track | CTDB Status
1 | (1/1) Accurately ripped
2 | (1/1) Accurately ripped
3 | (1/1) Accurately ripped
4 | (1/1) Accurately ripped
5 | (1/1) Accurately ripped
6 | (1/1) Accurately ripped
7 | (1/1) Accurately ripped
8 | (1/1) Accurately ripped
9 | (1/1) Accurately ripped
10 | (1/1) Accurately ripped


==== Log checksum BDD38B150CB311FA2BBA3A169483B030F93D75C04C9CEB5A3125627DC4005670 ====

[CUETools log; Date: 25.11.2019 3:21:17; Version: 2.1.4]
[CTDB TOCID: CqEx17inv78K._eD47b.3be50bA-] found.
Track | CTDB Status
1 | (2/2) Accurately ripped
2 | (2/2) Accurately ripped
3 | (2/2) Accurately ripped
4 | (2/2) Accurately ripped
5 | (2/2) Accurately ripped
6 | (2/2) Accurately ripped
7 | (2/2) Accurately ripped
8 | (2/2) Accurately ripped
9 | (2/2) Accurately ripped
10 | (2/2) Accurately ripped
[AccurateRip ID: 001a4575-00d417fd-8611b50a] found.
Track [ CRC | V2 ] Status
01 [3394bba6|ae7609b4] (02+08/10) Accurately ripped
02 [5dcaa0fd|a091fc3b] (02+09/11) Accurately ripped
03 [b80149da|f18faeab] (02+09/11) Accurately ripped
04 [ce0a82f4|18c49e54] (02+09/11) Accurately ripped
05 [ff72128c|b84fbd41] (02+09/11) Accurately ripped
06 [b530a657|920b48ba] (02+09/11) Accurately ripped
07 [efe8436c|5f32aa41] (02+09/11) Accurately ripped
08 [b61182be|3c5a883f] (02+09/11) Accurately ripped
09 [37370dfd|e5cc2c0a] (02+09/11) Accurately ripped
10 [ed325d72|17dcb422] (02+09/11) Accurately ripped

Track Peak [ CRC32 ] [W/O NULL] [ LOG ]
– 98,8 [C93EECDD] [6245E44F]
01 98,6 [CC4E2A1C] [4653E048] CRC32
02 98,6 [844667FB] [E0140E07] CRC32
03 97,4 [F858C254] [36463086] CRC32
04 97,3 [DEB7AAA5] [9412B9F2] CRC32
05 97,7 [948D5407] [95647EB8] CRC32
06 97,7 [40B0FCA3] [12222524] CRC32
07 97,7 [70A1D6EB] [1FD2CA5E] CRC32
08 98,6 [204E10A4] [0EE4B339] CRC32
09 94,5 [14976183] [05949F89] CRC32
10 98,8 [B22C7740] [F00E13A0] CRC32

Thanks to rodster 10

See also:
Tangerine Dream - The Electronic Journey (2010) [10CD Box Set]
Tangerine Dream - The Dream Roots Collection [5CD Box Set] (1996)
Tangerine Dream - Electronic Meditation (1970) [Reissue 1996]
Tangerine Dream - Zeit (1972) [Reissue 1996]
Tangerine Dream - Phaedra (1974) [Definitive Edition 1995]
Tangerine Dream - Ricochet (1975) [Definitive Edition 1995]
Tangerine Dream - Stratosfear (1976) [Definitive Edition 1995]
Tangerine Dream - Sorcerer (OST) (1977) [Reissue 2011]
Tangerine Dream - Force Majeure (1979) [Reissue 1995]
Tangerine Dream - Pergamon (1980) [Reissue 1996]
Tangerine Dream - White Eagle (1982) [Reissue 1995]
Tangerine Dream - Logos Live (1982) [Definitive Edition 1995]
Tangerine Dream - Firestarter ...ion Picture Soundtrack] (1984)
Tangerine Dream - Legend (OST) (1986) [Reissue 1995]
Tangerine Dream - Tyger (1987) [Reissue 1996]
Tangerine Dream - Optical Race (1988)
Tangerine Dream - Live Miles (1988) [Reissue 2003]
Tangerine Dream - Lily On The Beach (1989)
Tangerine Dream - Melrose (1990)
Tangerine Dream - Dead Solid Perfect (OST) (1990)
Tangerine Dream - The Park Is Mine (OST) (1991)
Tangerine Dream - Deadly Care (OST) (1992)
Tangerine Dream - Quinoa (1992) [Reissue 2009]
Tangerine Dream - Catch Me If You Can (OST) (1994)
Tangerine Dream - Tyranny Of Beauty (1995)
Tangerine Dream - Goblins' Club (1996)
Tangerine Dream - Zoning (OST) (1996)
Tangerine Dream - The Analogue Space Years 1969-1973 (1998)
Tangerine Dream - The Hollywood Years Vol. 1 (1998)
Tangerine Dream - The Hollywood Years Vol. 2 (1998)
Tangerine Dream - Antique Dreams (2000)
Tangerine Dream - Soundmill Navigator (2000)
Tangerine Dream - The Bootleg Box Set Vol. 1 [7CD] (2003)
Tangerine Dream - Purgatorio (2004)
Tangerine Dream - Arizona Live '92 (2004) [Reissue 2009]
Tangerine Dream - Cleveland - June 24th 1986 (2005)
Tangerine Dream - Blue Dawn (2006)
Tangerine Dream - The Essential Tangerine Dream (2006)
Tangerine Dream - Plays Tangerine Dream (2006)
Tangerine Dream - Views From A Red Train (2008)
Tangerine Dream - Booster (2008)
Tangerine Dream - Booster Vol. 2 (2008)
Tangerine Dream - The Antholog... Space Years Volume One (2008)
Tangerine Dream - Music For Sports: Cool Races (2009)
Tangerine Dream - DM V (Dream Mixes V) (2010)
Tangerine Dream - The London Eye Concert (2010)
Tangerine Dream - Edgar Allan Poe's The Island Of The Fay (2011)
Tangerine Dream - The Virgin Years 1974-1978 [3CD Box Set] (2011)
Tangerine Dream - The Official...ies Vol.1 [4CD Box Set] (2015)
Edgar Froese - 2 Albums (1974-1995)
Edgar Froese - Ages (1978) [Reissue 1997]
Edgar Froese - Pinnacles (1983)