Subcategories
Tags
Language
Tags

Tangerine Dream - One Times One (2007)

Posted By: gribovar
Tangerine Dream - One Times One (2007)

Tangerine Dream - One Times One (2007)
EAC Rip | APE (image+.cue+log) - 246 MB | MP3 CBR 320 kbps (LAME 3.93) - 94 MB | Covers included
Genre: Electronic, Berlin School, New Age | RAR 3% Rec. | Label: Eastgate (023 CD)

With One Times One, released in late 2007, Eastgate started to issue so-called 'cupdisc' releases, that is, CDs with a running time of about 40 minutes (about the time classic vinyl albums offered back in the 70s and 80s), wrapped in a simple cardboard sleeve instead of a jewel case.
The album contains four completely new compositions by Edgar Froese as well as an instrumental version of a vocal track originally released on Madcap's Flaming Duty (2007) and another remix of Loved By The Sun. This one is based on the version released on Plays Tangerine Dream (2006) but is overlayed with an additional guitar line.

Tracklist:
01. Sadness Of Echnaton Losing The World Child
02. Man (Instrumental)
03. Modesty And Greed
04. Loved By The Sun (Instrumental)
05. Gleeful Poets Crying Softly
06. Daughters Of Time

Total time: 39:26

Exact Audio Copy V0.99 prebeta 5 from 4. May 2009

EAC extraction logfile from 27. January 2010, 20:36

Tangerine Dream / One Times One

Used drive : ASUS DRW-2014S1 Adapter: 0 ID: 0

Read mode : Secure
Utilize accurate stream : Yes
Defeat audio cache : Yes
Make use of C2 pointers : No

Read offset correction : 6
Overread into Lead-In and Lead-Out : No
Fill up missing offset samples with silence : Yes
Delete leading and trailing silent blocks : No
Null samples used in CRC calculations : Yes
Used interface : Native Win32 interface for Win NT & 2000

Used output format : Internal WAV Routines
Sample format : 44.100 Hz; 16 Bit; Stereo


TOC of the extracted CD

Track | Start | Length | Start sector | End sector
––––––––––––––––––––––––––––-
1 | 0:00.00 | 6:25.64 | 0 | 28938
2 | 6:25.64 | 4:52.73 | 28939 | 50911
3 | 11:18.62 | 7:04.55 | 50912 | 82766
4 | 18:23.42 | 3:38.27 | 82767 | 99143
5 | 22:01.69 | 8:22.27 | 99144 | 136820
6 | 30:24.21 | 9:01.22 | 136821 | 177417


Range status and errors

Selected range

Filename D:\EAC\Tangerine Dream - One Times One.wav

Peak level 97.7 %
Range quality 100.0 %
Test CRC 67DFA35A
Copy CRC 67DFA35A
Copy OK

No errors occurred


AccurateRip summary

Track 1 accurately ripped (confidence 2) [536076AE]
Track 2 accurately ripped (confidence 2) [603A6CF3]
Track 3 accurately ripped (confidence 2) [B04575A6]
Track 4 accurately ripped (confidence 2) [5792022B]
Track 5 accurately ripped (confidence 2) [11971957]
Track 6 accurately ripped (confidence 2) [C9A3E373]

All tracks accurately ripped

End of status report

[CUETools log; Date: 24.04.2021 12:34:06; Version: 2.1.4]
[CTDB TOCID: IIno7sV.u_K.NBp.UUKlfPrFcbQ-] found.
Track | CTDB Status
1 | (17/18) Accurately ripped
2 | (17/18) Accurately ripped
3 | (17/18) Accurately ripped
4 | (17/18) Accurately ripped
5 | (17/18) Accurately ripped
6 | (17/18) Accurately ripped
[AccurateRip ID: 0008ca01-002f4e5f-43093d06] found.
Track [ CRC | V2 ] Status
01 [536076ae|cbbffa87] (04+06/10) Accurately ripped
02 [603a6cf3|17fb2ae6] (04+06/10) Accurately ripped
03 [b04575a6|3b89afc5] (04+06/10) Accurately ripped
04 [5792022b|83fcf7ba] (04+06/10) Accurately ripped
05 [11971957|371bcb7f] (04+06/10) Accurately ripped
06 [c9a3e373|858cbd56] (04+06/10) Accurately ripped

Track Peak [ CRC32 ] [W/O NULL] [ LOG ]
– 97,7 [67DFA35A] [4371F5B6] CRC32
01 97,7 [53272BC8] [1FD2CA5E]
02 97,7 [2CEBACEE] [8F005F6C]
03 97,7 [11C9A2A4] [8CD0051B]
04 97,7 [F01092FC] [720BCEF6]
05 97,7 [FDE4BE86] [CBB7F9E7]
06 97,7 [65051E3F] [B9BF99CB]

Thanks to the original releaser

See also:
Tangerine Dream - The Electronic Journey (2010) [10CD Box Set]
Tangerine Dream - The Dream Roots Collection [5CD Box Set] (1996)
Tangerine Dream - Electronic Meditation (1970) [Reissue 1996]
Tangerine Dream - Alpha Centauri (1971) [Reissue 1996]
Tangerine Dream - Alpha Centauri (1971) [Reissue 2011]
Tangerine Dream - Zeit (1972) [Reissue 1996]
Tangerine Dream - Atem (1973) [Reissue 2011]
Tangerine Dream - Phaedra (1974) [Original Edition]
Tangerine Dream - Phaedra (1974) [Definitive Edition 1995]
Tangerine Dream - Rubycon (1975) [Non-remastered, Reissue 1988]
Tangerine Dream - Rubycon (1975) [Definitive Edition 1995]
Tangerine Dream - Ricochet (1975) [Definitive Edition 1995]
Tangerine Dream - Stratosfear (1976) [Definitive Edition 1995]
Tangerine Dream - Encore (1977)
Tangerine Dream - Sorcerer (OST) (1977) [Reissue 2011]
Tangerine Dream - Force Majeure (1979) [Reissue 1995]
Tangerine Dream - Tangram (1980)
Tangerine Dream - Pergamon (1980) [Reissue 1996]
Tangerine Dream - White Eagle (1982) [Reissue 1995]
Tangerine Dream - Logos Live (1982) [Definitive Edition 1995]
Tangerine Dream - Hyperborea (1983)
Tangerine Dream - Wavelength [OST] (1983)
Tangerine Dream - Poland - The Warsaw Concert (1984) [Reissue 2011]
Tangerine Dream - Firestarter ...ion Picture Soundtrack] (1984)
Tangerine Dream - Underwater Sunlight (1986) [Non-Remastered]
Tangerine Dream - Underwater Sunlight (1986) [Reissue 1996]
Tangerine Dream - Green Desert [Recorded 1973] (1986)
Tangerine Dream - Legend (OST) (1986) [Reissue 1995]
Tangerine Dream - Tyger (1987) [Reissue 1992, US version]
Tangerine Dream - Tyger (1987) [Reissue 1996]
Tangerine Dream - Three O'Clock High [OST] (1987)
Tangerine Dream - Optical Race (1988)
Tangerine Dream - Live Miles (1988) [Reissue 2003]
Tangerine Dream - Lily On The Beach (1989)
Tangerine Dream - Melrose (1990)
Tangerine Dream - Dead Solid Perfect (OST) (1990)
Tangerine Dream - The Park Is Mine (OST) (1991)
Tangerine Dream - Rockoon (1992) [Reissue 2000]
Tangerine Dream - Deadly Care (OST) (1992)
Tangerine Dream - Quinoa (1992) [Reissue 2009]
Tangerine Dream - The Story Of Tangerine Dream (1992)
Tangerine Dream - Catch Me If You Can (OST) (1994)
Tangerine Dream - Tyranny Of Beauty (1995)
Tangerine Dream - Goblins' Club (1996)
Tangerine Dream - Zoning (OST) (1996)
Tangerine Dream - The Analogue Space Years 1969-1973 (1998)
Tangerine Dream - The Hollywood Years Vol. 1 (1998)
Tangerine Dream - The Hollywood Years Vol. 2 (1998)
Tangerine Dream - Atlantic Bridges [Recorded 1988-1997] (1998)
Tangerine Dream - Antique Dreams (2000)
Tangerine Dream - Soundmill Navigator (2000)
Tangerine Dream - The Bootleg Box Set Vol. 1 [7CD] (2003)
Tangerine Dream - Rockface: Li...ey / San Francisco 1988 (2003)
Tangerine Dream - Purgatorio (2004)
Tangerine Dream - Arizona Live '92 (2004) [Reissue 2009]
Tangerine Dream - Phaedra 2005 (2005) [Japanese Edition 2009]
Tangerine Dream - Cleveland - June 24th 1986 (2005)
Tangerine Dream - Blue Dawn (2006)
Tangerine Dream - The Essential Tangerine Dream (2006)
Tangerine Dream - Plays Tangerine Dream (2006)
Tangerine Dream - Springtime In Nagasaki (2007)
Tangerine Dream - Summer In Nagasaki (2007)
Tangerine Dream - Autumn In Hiroshima (2008)
Tangerine Dream - Views From A Red Train (2008)
Tangerine Dream - Booster (2008)
Tangerine Dream - Booster Vol. 2 (2008)
Tangerine Dream - The Antholog... Space Years Volume One (2008)
Tangerine Dream - Booster III (2009)
Tangerine Dream - Axiat [Recorded 1999-2005] (2009)
Tangerine Dream - Music For Sports: Cool Races (2009)
Tangerine Dream - Music For Sports: Power And Motion (2009)
Tangerine Dream - DM V (Dream Mixes V) (2010)
Tangerine Dream - The Endless Season (2010)
Tangerine Dream - The London Eye Concert (2010)
Tangerine Dream - Zeitgeist Concert [3CD Box Set] (2010)
Tangerine Dream - The Virgin Years 1974-1978 [3CD Box Set] (2011)
Tangerine Dream - Booster IV (2011)
Tangerine Dream - Booster V (2012)
Tangerine Dream - The Official...ies Vol.1 [4CD Box Set] (2015)
Tangerine Dream - Live At The Tempodrome Berlin (2006) [DVD]
Tangerine Dream - Live At Coventry Cathedral 1975 (2007) [DVD]
Tangerine Dream - Madcap's Flaming Duty [DVD] (2007)
Tangerine Dream - 35th Phaedra Anniversary Concert [2DVD] (2007)
Edgar Froese - 2 Albums (1974-1995)
Edgar Froese - Ages (1978) [Reissue 1997]
Edgar Froese - Pinnacles (1983)