Tags
Language
Tags

Tangerine Dream - Optical Race (1988) (Repost)

Posted By: gribovar
Tangerine Dream - Optical Race (1988) (Repost)

Tangerine Dream - Optical Race (1988)
EAC Rip | APE (image+.cue+log) - 348 MB | MP3 CBR 320 kbps (LAME 3.93) - 145 MB | Covers included
Genre: Traditional Electronic, Berlin School | RAR 3% Rec. | Label: Private Music (259 557)

Optical Race is one of Tangerine Dream's most accessible releases. The melodies and hooks are as strong as on any Dream production, and are complemented by the electronic washes of sound. Pared down to the duo of founder and visionary Edward Froese and fellow synth wizard Paul Haslinger, the music is complete yet questioning, the hallmark of all the best Tangerine Dream recordings. Stylistically it straddles the ground between the preceding Underwater Sunlight and the earlier Tangram. Optical Race also marked a reunion of sorts with former Dreamer Peter Baumann, then head of the Private Music label, which for a time became known for its edgy, electronic music by the likes of Yanni, Azuma, Eddie Jobson, and Tangerine Dream. (Following its purchase by fellow new age label Windham Hill, Private was reborn as a blues label.) The title cut, with its insistent electronic percussion pushing the beat, is a highlight.
Tracklist:
01. Marakesh
02. Atlas Eyes
03. Mothers Of Rain
04. Twin Soul Tribe
05. Optical Race
06. Cat Scan
07. Sun Gate
08. Turning Off The Wheel
09. The Midnight Trail
10. Ghazal (Love Song)

Total time: 53:17

Exact Audio Copy V0.99 prebeta 4 from 23. January 2008

EAC extraction logfile from 8. November 2008, 22:33

Tangerine Dream / Optical Race

Used drive : LITE-ON DVDRW LH-20A1S Adapter: 3 ID: 0

Read mode : Secure
Utilize accurate stream : Yes
Defeat audio cache : Yes
Make use of C2 pointers : No

Read offset correction : 6
Overread into Lead-In and Lead-Out : No
Fill up missing offset samples with silence : Yes
Delete leading and trailing silent blocks : No
Null samples used in CRC calculations : Yes
Used interface : Installed external ASPI interface

Used output format : Internal WAV Routines
Sample format : 44.100 Hz; 16 Bit; Stereo


TOC of the extracted CD

Track | Start | Length | Start sector | End sector
––––––––––––––––––––––––––––-
1 | 0:00.00 | 8:20.25 | 0 | 37524
2 | 8:20.25 | 4:04.45 | 37525 | 55869
3 | 12:24.70 | 5:14.45 | 55870 | 79464
4 | 17:39.40 | 4:40.27 | 79465 | 100491
5 | 22:19.67 | 3:14.05 | 100492 | 115046
6 | 25:33.72 | 5:38.70 | 115047 | 140466
7 | 31:12.67 | 4:46.68 | 140467 | 161984
8 | 35:59.60 | 6:14.05 | 161985 | 190039
9 | 42:13.65 | 5:53.57 | 190040 | 216571
10 | 48:07.47 | 5:09.08 | 216572 | 239754


Range status and errors

Selected range

Filename F:\Media\BTout\Tangerine Dream - Optical Race\Tangerine Dream - Optical Race.wav

Peak level 99.9 %
Range quality 100.0 %
Copy CRC F367E947
Copy OK

No errors occurred


AccurateRip summary

Track 1 accurately ripped (confidence 11) [F4A3CB05]
Track 2 accurately ripped (confidence 11) [FA3B3BFA]
Track 3 accurately ripped (confidence 11) [DCFD9FB0]
Track 4 accurately ripped (confidence 11) [BCB6B6DD]
Track 5 accurately ripped (confidence 11) [5219F354]
Track 6 accurately ripped (confidence 11) [6A192838]
Track 7 accurately ripped (confidence 11) [582F9582]
Track 8 accurately ripped (confidence 11) [BCC0018C]
Track 9 accurately ripped (confidence 11) [77EF0E6D]
Track 10 accurately ripped (confidence 10) [A2DFC93E]

All tracks accurately ripped

End of status report

[CUETools log; Date: 04.11.2017 16:06:19; Version: 2.1.4]
[CTDB TOCID: iiAfYlctttbcw58Vgis8aJXl_0k-] found.
Track | CTDB Status
1 | (152/152) Accurately ripped
2 | (150/152) Accurately ripped
3 | (151/152) Accurately ripped
4 | (151/152) Accurately ripped
5 | (151/152) Accurately ripped
6 | (151/152) Accurately ripped
7 | (150/152) Accurately ripped
8 | (151/152) Accurately ripped
9 | (151/152) Accurately ripped
10 | (151/152) Accurately ripped
[AccurateRip ID: 00146782-00a0ea85-810c7c0a] found.
Track [ CRC | V2 ] Status
01 [f4a3cb05|b030d43e] (061+080/141) Accurately ripped
02 [fa3b3bfa|9486909f] (062+081/143) Accurately ripped
03 [dcfd9fb0|42fb5e85] (062+081/143) Accurately ripped
04 [bcb6b6dd|abb489a2] (063+080/143) Accurately ripped
05 [5219f354|38f7efcc] (063+080/143) Accurately ripped
06 [6a192838|8dbd97c2] (062+080/142) Accurately ripped
07 [582f9582|5e05a2bd] (063+080/143) Accurately ripped
08 [bcc0018c|137ea1b5] (063+080/143) Accurately ripped
09 [77ef0e6d|a53bd750] (062+080/142) Accurately ripped
10 [a2dfc93e|27054115] (061+080/141) Accurately ripped

Track Peak [ CRC32 ] [W/O NULL] [ LOG ]
– 99,9 [F367E947] [0E647CB5] CRC32
01 90,3 [191E5BAB] [1810B1DD]
02 99,5 [CC93B0D5] [EB392342]
03 92,2 [A7EE1ADE] [CCE99A08]
04 95,8 [515AD56E] [F614FDD5]
05 99,0 [863CF8FA] [B7B9FA71]
06 97,7 [04691F6D] [3553ACF7]
07 94,1 [15146329] [48400208]
08 99,9 [AAED0A63] [23ED71C0]
09 92,5 [834733B9] [AA19C039]
10 84,1 [901AFCB0] [72BE34D7]

Thanks to Yanni777