Tags
Language
Tags

Tangerine Dream - Pergamon (1980) [Reissue 1996]

Posted By: gribovar
Tangerine Dream - Pergamon (1980) [Reissue 1996]

Tangerine Dream - Pergamon (1980) [Reissue 1996]
EAC Rip | APE (image+.cue+log) - 281 MB | MP3 CBR 320 kbps (LAME 3.93) - 115 MB | Covers (7 MB) included
Genre: Progressive Electronic | RAR 3% Rec. | Label: Castle (ESM CD 413)

Pergamon, originally simply released as Quichotte (1980) with two parts "Quichotte" - Part one and two, is the third live album and fourteenth overall by Tangerine Dream. It consists of two long tracks of partly improvised music. Themes from the album Tangram can be heard throughout the album, as the concert took place during the process of preparing material for that studio album. Edgar Froese and Chris Franke had remixed and edited the music in East Berlin as part of the original deal. The original, untouched evening concert (taken from a radio broadcast) has been fan-released as Tangerine Tree Volume 17: East Berlin 1980 and is considerably different from the official album release. Six years after its initial release, in April 1986, the album was made available to the rest of the world by Virgin both on vinyl and CD. It was now titled Pergamon (after the impressive museum in East Berlin) and featured a completely different cover.

Tracklist:
01. Quichotte Part I
02. Quichotte Part II

Total time: 46:07

Exact Audio Copy V0.99 prebeta 4 from 23. January 2008

Отчёт EAC об извлечении, выполненном 25. июня 2009, 22:30

Tangerine Dream / Pergamon

Дисковод: _NEC DVD_RW ND-3540A Adapter: 0 ID: 0

Режим чтения : Достоверность
Использование точного потока : Да
Отключение кэша аудио : Да
Использование указателей C2 : Нет

Коррекция смещения при чтении : 48
Способность читать области Lead-in и Lead-out : Нет
Заполнение пропущенных сэмплов тишиной : Да
Удаление блоков с тишиной в начале и конце : Нет
При вычислениях CRC использовались нулевые сэмплы : Да
Интерфейс : Встроенный Win32-интерфейс для Win NT/2000

Выходной формат : Внутренние WAV-операции
Формат сэмплов : 44.100 Гц; 16 бит; стерео


TOC извлечённого CD

Трек | Старт | Длительность | Начальный сектор | Конечный сектор
––––––––––––––––––––––––––––––––––-
1 | 0:00.00 | 23:20.00 | 0 | 104999
2 | 23:20.00 | 22:47.25 | 105000 | 207549


Характеристики диапазона извлечения и сообщения об ошибках

Выбранный диапазон

Имя файла F:\APE\Pergamon\Tangerine Dream - Pergamon.wav

Пиковый уровень 98.8 %
Качество диапазона 100.0 %
CRC копии 019BFC7C
Копирование… OK

Ошибок не произошло


AccurateRip: сводка

Трек 1 точное извлечение (доверие 5) [DAF4A539]
Трек 2 точное извлечение (доверие 5) [C4844240]

Все треки извлечены точно

Конец отчёта

[CUETools log; Date: 13.12.2017 19:06:24; Version: 2.1.4]
[CTDB TOCID: XXTTdXVS9.cJAWZqa9dtnwmnJqg-] found.
Track | CTDB Status
1 | (59/59) Accurately ripped
2 | (59/59) Accurately ripped
[AccurateRip ID: 0004c4e6-000cb48b-090acf02] found.
Track [ CRC | V2 ] Status
01 [daf4a539|4e696486] (10+15/49) Accurately ripped
02 [c4844240|82e49ed1] (10+15/49) Accurately ripped
Offsetted by -2797:
01 [588ab7af] (03/49) Accurately ripped
02 [16dbb764] (03/49) Accurately ripped
Offsetted by -270:
01 [e43dccfd] (04/49) Accurately ripped
02 [3d11d3f2] (04/49) Accurately ripped
Offsetted by -267:
01 [69d3be53] (00/49) No match (V2 was not tested)
02 [638d6915] (00/49) No match (V2 was not tested)

Track Peak [ CRC32 ] [W/O NULL] [ LOG ]
– 98,8 [019BFC7C] [B459669A] CRC32
01 98,1 [7DCF8487] [5F9E934D]
02 98,8 [C3B2D945] [AE4459A0]

Thanks to original releaser