Tags
Language
Tags

Tangerine Dream - Phaedra 2005 (2005) [Japanese Edition 2009]

Posted By: gribovar
Tangerine Dream - Phaedra 2005 (2005) [Japanese Edition 2009]

Tangerine Dream - Phaedra 2005 (2005) [Japanese Edition 2009]
EAC Rip | FLAC (tracks+.cue+log) - 251 MB | MP3 CBR 320 kbps (LAME 3.93) - 100 MB | Covers (10 MB) included
Genre: Progressive Electronic | RAR 3% Rec. | Label: WHD Entertainment (IECP-10169)

When the album "Phaedra" hit the album charts worldwide back in 1974, no one had foreseen such a remarkable career of a new musical sound created by Tangerine Dream. All instruments were new and unknown to the audience. The sound itself was the opposite of all common music at those days. During the concerts the band created an uncomparable atmosphere. Now, more than 30 years later you can listen to the modern form of this classic recording. The material has been re-recorded by using partly the same kind instruments as on the original recording. Also the new digital technology has played a keyrole during various recording sessions. It was not the intension to please all the TD purists and analogue fans ­ but you will have an idea of how the band is still connected to the style and trademark that has made them so original. The additional title "Delfi" has been composed 2005 in the spirit of the seventies.

Tracklist:
01. Phaedra
02. Mysterious Semblance At The Strand Of Nightmares
03. Movements Of A Visionary
04. Sequent C'
05. Delfi

Total time: 38:10

Exact Audio Copy V0.99 prebeta 5 from 4. May 2009

EAC extraction logfile from 26. April 2013, 14:45

Tangerine Dream / Phaedra 2005

Used drive : ASUS DRW-22B2L Adapter: 0 ID: 0

Read mode : Secure
Utilize accurate stream : Yes
Defeat audio cache : Yes
Make use of C2 pointers : No

Read offset correction : 6
Overread into Lead-In and Lead-Out : No
Fill up missing offset samples with silence : Yes
Delete leading and trailing silent blocks : No
Null samples used in CRC calculations : Yes
Used interface : Native Win32 interface for Win NT & 2000
Gap handling : Appended to previous track

Used output format : Internal WAV Routines
Sample format : 44.100 Hz; 16 Bit; Stereo


TOC of the extracted CD

Track | Start | Length | Start sector | End sector
––––––––––––––––––––––––––––-
1 | 0:00.00 | 11:10.41 | 0 | 50290
2 | 11:10.41 | 9:52.01 | 50291 | 94691
3 | 21:02.42 | 7:52.70 | 94692 | 130161
4 | 28:55.37 | 3:05.56 | 130162 | 144092
5 | 32:01.18 | 6:08.47 | 144093 | 171739


Track 1

Filename C:\Temp\01. Phaedra.wav

Pre-gap length 0:00:02.00

Peak level 98.6 %
Track quality 100.0 %
Test CRC DC656841
Copy CRC DC656841
Track not present in AccurateRip database
Copy OK

Track 2

Filename C:\Temp\02. Mysterious Semblance At The Strand Of Nightmares.wav

Peak level 98.6 %
Track quality 100.0 %
Test CRC A0D2E78F
Copy CRC A0D2E78F
Track not present in AccurateRip database
Copy OK

Track 3

Filename C:\Temp\03. Movements Of A Visionary.wav

Peak level 98.6 %
Track quality 100.0 %
Test CRC 504D38FB
Copy CRC 504D38FB
Track not present in AccurateRip database
Copy OK

Track 4

Filename C:\Temp\04. Sequent C.wav

Peak level 98.4 %
Track quality 100.0 %
Test CRC EC384B76
Copy CRC EC384B76
Track not present in AccurateRip database
Copy OK

Track 5

Filename C:\Temp\05. Delfi.wav

Peak level 98.6 %
Track quality 99.9 %
Test CRC B12E1C8C
Copy CRC B12E1C8C
Track not present in AccurateRip database
Copy OK


None of the tracks are present in the AccurateRip database

No errors occurred

End of status report

[CUETools log; Date: 15.02.2020 0:12:32; Version: 2.1.4]
[CTDB TOCID: IPVxmrwk.tV9Vx4xUGJ56QdSQho-] found.
Track | CTDB Status
1 | (5/5) Accurately ripped
2 | (5/5) Accurately ripped
3 | (5/5) Accurately ripped
4 | (5/5) Accurately ripped
5 | (5/5) Accurately ripped
[AccurateRip ID: 00090482-002887d4-3f08f105] found.
Track [ CRC | V2 ] Status
01 [1d86f1c0|9794eb1f] (0+0/2) No match
02 [9d45f0f3|89bd4b9f] (0+0/2) No match
03 [b0267797|dd6f292b] (0+0/2) No match
04 [3de5c017|043f0b3b] (0+0/2) No match
05 [96b79d3f|89f841da] (0+0/2) No match
Offsetted by 6:
01 [3c1caf6a] (0/2) No match (V2 was not tested)
02 [11fbb42b] (0/2) No match (V2 was not tested)
03 [59ab870d] (0/2) No match (V2 was not tested)
04 [d0036b54] (0/2) No match (V2 was not tested)
05 [a48f15c6] (0/2) No match (V2 was not tested)

Track Peak [ CRC32 ] [W/O NULL] [ LOG ]
– 98,6 [E8B761C9] [143A8B15]
01 98,6 [DC656841] [C1B933C4] CRC32
02 98,6 [A0D2E78F] [D26215E9] CRC32
03 98,6 [504D38FB] [34022779] CRC32
04 98,4 [EC384B76] [9A1C827C] CRC32
05 98,6 [B12E1C8C] [79166011] CRC32

Thanks to the original releaser

See also:
Tangerine Dream - The Electronic Journey (2010) [10CD Box Set]
Tangerine Dream - The Dream Roots Collection [5CD Box Set] (1996)
Tangerine Dream - Electronic Meditation (1970) [Reissue 1996]
Tangerine Dream - Alpha Centauri (1971) [Reissue 2011]
Tangerine Dream - Zeit (1972) [Reissue 1996]
Tangerine Dream - Atem (1973) [Reissue 2011]
Tangerine Dream - Phaedra (1974) [Definitive Edition 1995]
Tangerine Dream - Ricochet (1975) [Definitive Edition 1995]
Tangerine Dream - Stratosfear (1976) [Definitive Edition 1995]
Tangerine Dream - Sorcerer (OST) (1977) [Reissue 2011]
Tangerine Dream - Force Majeure (1979) [Reissue 1995]
Tangerine Dream - Pergamon (1980) [Reissue 1996]
Tangerine Dream - White Eagle (1982) [Reissue 1995]
Tangerine Dream - Logos Live (1982) [Definitive Edition 1995]
Tangerine Dream - Poland - The Warsaw Concert (1984) [Reissue 2011]
Tangerine Dream - Firestarter ...ion Picture Soundtrack] (1984)
Tangerine Dream - Legend (OST) (1986) [Reissue 1995]
Tangerine Dream - Tyger (1987) [Reissue 1996]
Tangerine Dream - Optical Race (1988)
Tangerine Dream - Live Miles (1988) [Reissue 2003]
Tangerine Dream - Lily On The Beach (1989)
Tangerine Dream - Melrose (1990)
Tangerine Dream - Dead Solid Perfect (OST) (1990)
Tangerine Dream - The Park Is Mine (OST) (1991)
Tangerine Dream - Deadly Care (OST) (1992)
Tangerine Dream - Quinoa (1992) [Reissue 2009]
Tangerine Dream - Catch Me If You Can (OST) (1994)
Tangerine Dream - Tyranny Of Beauty (1995)
Tangerine Dream - Goblins' Club (1996)
Tangerine Dream - Zoning (OST) (1996)
Tangerine Dream - The Analogue Space Years 1969-1973 (1998)
Tangerine Dream - The Hollywood Years Vol. 1 (1998)
Tangerine Dream - The Hollywood Years Vol. 2 (1998)
Tangerine Dream - Antique Dreams (2000)
Tangerine Dream - Soundmill Navigator (2000)
Tangerine Dream - The Bootleg Box Set Vol. 1 [7CD] (2003)
Tangerine Dream - Purgatorio (2004)
Tangerine Dream - Arizona Live '92 (2004) [Reissue 2009]
Tangerine Dream - Cleveland - June 24th 1986 (2005)
Tangerine Dream - Blue Dawn (2006)
Tangerine Dream - The Essential Tangerine Dream (2006)
Tangerine Dream - Plays Tangerine Dream (2006)
Tangerine Dream - Views From A Red Train (2008)
Tangerine Dream - Booster (2008)
Tangerine Dream - Booster Vol. 2 (2008)
Tangerine Dream - The Antholog... Space Years Volume One (2008)
Tangerine Dream - Music For Sports: Cool Races (2009)
Tangerine Dream - Music For Sports: Power And Motion (2009)
Tangerine Dream - DM V (Dream Mixes V) (2010)
Tangerine Dream - The London Eye Concert (2010)
Tangerine Dream - The Virgin Years 1974-1978 [3CD Box Set] (2011)
Tangerine Dream - The Official...ies Vol.1 [4CD Box Set] (2015)
Edgar Froese - 2 Albums (1974-1995)
Edgar Froese - Ages (1978) [Reissue 1997]
Edgar Froese - Pinnacles (1983)