Tags
Language
Tags

Tangerine Dream - Phaedra (1974) [Definitive Edition 1995] (Repost)

Posted By: gribovar
Tangerine Dream - Phaedra (1974) [Definitive Edition 1995] (Repost)

Tangerine Dream - Phaedra (1974) [Definitive Edition 1995]
EAC Rip | FLAC (image+.cue+log) - 172 MB | MP3 CBR 320 kbps (LAME 3.93) - 102 MB | Covers (12 MB) included
Genre: Progressive Electronic, Berlin School | RAR 3% Rec. | Label: Virgin Records (7243 8 40062 28)

Phaedra is one of the most important, artistic, and exciting works in the history of electronic music, a brilliant and compelling summation of Tangerine Dream's early avant-space direction balanced with the synthesizer/sequencer technology just beginning to gain a foothold in nonacademic circles. The result is best heard on the 15-minute title track, unparalleled before or since for its depth of sound and vision. Given focus by the arpeggiated trance that drifts in and out of the mix, the track progresses through several passages including a few surprisingly melodic keyboard lines and an assortment of eerie Moog and Mellotron effects, gaseous explosions, and windy sirens. Despite the impending chaos, the track sounds more like a carefully composed classical work than an unrestrained piece of noise. While the title track takes the cake, there are three other excellent tracks on Phaedra. "Mysterious Semblance at the Strand of Nightmares" is a solo Edgar Froese song that uses some surprisingly emotive and affecting synthesizer washes, and "Movements of a Visionary" is a more experimental piece, using treated voices and whispers to drive its hypnotic arpeggios. Perhaps even more powerful as a musical landmark now than when it was first recorded, Phaedra has proven the test of time.

Tracklist:
01. Phaedra
02. Mysterious Semblance At The Strand Of Nightmares
03. Movements Of A Visionary
04. Sequent 'C'

Total time: 37:49

Exact Audio Copy V0.99 prebeta 3 from 28. July 2007

EAC extraction logfile from 25. January 2008, 22:38

Tangerine Dream / Phaedra

Used drive : PLEXTOR DVDR PX-716A Adapter: 2 ID: 1

Read mode : Secure
Utilize accurate stream : Yes
Defeat audio cache : Yes
Make use of C2 pointers : No

Read offset correction : 30
Overread into Lead-In and Lead-Out : No
Fill up missing offset samples with silence : Yes
Delete leading and trailing silent blocks : No
Null samples used in CRC calculations : Yes
Used interface : Installed external ASPI interface

Used output format : Internal WAV Routines
Sample format : 44.100 Hz; 16 Bit; Stereo


TOC of the extracted CD

Track | Start | Length | Start sector | End sector
––––––––––––––––––––––––––––-
1 | 0:00.00 | 16:47.58 | 0 | 75582
2 | 16:47.58 | 10:45.37 | 75583 | 123994
3 | 27:33.20 | 7:58.08 | 123995 | 159852
4 | 35:31.28 | 2:17.32 | 159853 | 170159


Range status and errors

Selected range

Filename C:\TD\Tangerine Dream - Phaedra.wav

Peak level 85.1 %
Range quality 100.0 %
Test CRC 1BC03364
Copy CRC 1BC03364
Copy OK

No errors occurred


AccurateRip summary

Track 1 accurately ripped (confidence 15) [C35CD904]
Track 2 accurately ripped (confidence 15) [28F3C522]
Track 3 accurately ripped (confidence 15) [C32A1718]
Track 4 accurately ripped (confidence 15) [22F89CF2]

All tracks accurately ripped

End of status report

[CUETools log; Date: 21.11.2016 21:33:44; Version: 2.1.4]
[CTDB TOCID: 4.4kTZX.L51LjTBs948vCzl6jVo-] found.
Track | CTDB Status
1 | (223/227) Accurately ripped
2 | (226/227) Accurately ripped
3 | (226/227) Accurately ripped
4 | (225/227) Accurately ripped
[AccurateRip ID: 000814b7-001eb8b4-2608dc04] found.
Track [ CRC | V2 ] Status
01 [c35cd904|fbe4b740] (061+059/338) Accurately ripped
02 [28f3c522|bb19c2f2] (062+060/339) Accurately ripped
03 [c32a1718|18cab362] (062+060/340) Accurately ripped
04 [22f89cf2|d530bd7d] (062+059/341) Accurately ripped
Offsetted by -24:
01 [589ddba4] (035/338) Accurately ripped
02 [a9e7f22e] (035/339) Accurately ripped
03 [a9dce282] (036/340) Accurately ripped
04 [5de4bb24] (036/341) Accurately ripped
Offsetted by 71:
01 [bf273140] (037/338) Accurately ripped
02 [c00e7c47] (037/339) Accurately ripped
03 [a41130ca] (037/340) Accurately ripped
04 [a27da8d6] (037/341) Accurately ripped
Offsetted by 101:
01 [c495edf8] (007/338) Accurately ripped
02 [fc8d9ecf] (007/339) Accurately ripped
03 [a2c0e8fd] (007/340) Accurately ripped
04 [7d8e4819] (007/341) Accurately ripped
Offsetted by -676:
01 [04aea2f4] (000/338) No match (V2 was not tested)
02 [91c736ed] (000/339) No match (V2 was not tested)
03 [2b365d5b] (000/340) No match (V2 was not tested)
04 [bbed7230] (000/341) No match (V2 was not tested)
Offsetted by -18:
01 [f34d9afc] (000/338) No match
02 [d5638013] (000/339) No match
03 [08d7eff2] (000/340) No match
04 [8f85735d] (000/341) No match (V2 was not tested)

Track Peak [ CRC32 ] [W/O NULL] [ LOG ]
– 85,1 [1BC03364] [6B70C8C3] CRC32
01 81,4 [A45C2529] [2169339B]
02 85,1 [67525A22] [704417F4]
03 66,6 [CC299CA4] [25741CDE]
04 57,1 [56FF5F89] [861E5BE8]

Thanks to friend23