Tags
Language
Tags

Tangerine Dream - Plays Tangerine Dream (2006) (Repost)

Posted By: gribovar
Tangerine Dream - Plays Tangerine Dream (2006) (Repost)

Tangerine Dream - Plays Tangerine Dream (2006)
EAC Rip | APE (image+.cue+log) - 444 MB | MP3 CBR 320 kbps (LAME 3.93) - 171 MB | Covers - 23 MB
Genre: Progressive Electronic | RAR 3% Rec. | Label: Membran Music (232605), 2009

Plays Tangerine Dream features re-recordings by several present and past members of the band. This issue will start with a more classic approach to 13 songs created within the 40 years timespan of one of the most creative bands around. The songs are re-performed partly by the original composer or by musicians who had been or still are associated with the band. Plays Tangerine Dream can be taken as a synonym for travelling back and forwards within the groups unlimited sound universe.
Tracklist:
01. Southpole Crossing (performed by Paul Haslinger)
02. Logos Blue (performed by Ralf Wadephul)
03. Alchemy Of The Heart II (performed by Paul Haslinger & Edgar Froese)
04. Beach Theme (performed by Zlatko Perica)
05. Phaedra 2005 (performed by Edgar Froese)
06. Desert T. Dream (performed by Ralf Wadephul)
07. Convention Of The 24 (performed by Edgar Froese)
08. The Blue Bridge (performed by Thorsten Quaeschning & Linda Spa)
09. Ride On A Ray (performed by Edgar Froese)
10. Logos Velvet (performed by Thorsten Quaeschning)
11. Challengers Arrival (performed by Edgar Froese)
12. Sphinx Red Lightning (performed by Edgar Froese)
13. Pergamon Sphere (performed by Johannes Schmoelling)
14. Loved By The Sun (performed by Thorsten Quaeschning)

Total time: 01:12:39

Exact Audio Copy V0.99 prebeta 5 from 4. May 2009

EAC extraction logfile from 13. January 2010, 1:13

Tangerine Dream / Plays Tangerine Dream

Used drive : ASUS DRW-1814BL Adapter: 0 ID: 0

Read mode : Secure
Utilize accurate stream : Yes
Defeat audio cache : Yes
Make use of C2 pointers : No

Read offset correction : 6
Overread into Lead-In and Lead-Out : No
Fill up missing offset samples with silence : Yes
Delete leading and trailing silent blocks : No
Null samples used in CRC calculations : Yes
Used interface : Native Win32 interface for Win NT & 2000

Used output format : Internal WAV Routines
Sample format : 44.100 Hz; 16 Bit; Stereo


TOC of the extracted CD

Track | Start | Length | Start sector | End sector
––––––––––––––––––––––––––––-
1 | 0:00.00 | 4:10.04 | 0 | 18753
2 | 4:10.04 | 6:00.11 | 18754 | 45764
3 | 10:10.15 | 4:29.21 | 45765 | 65960
4 | 14:39.36 | 3:36.65 | 65961 | 82225
5 | 18:16.26 | 5:49.69 | 82226 | 108469
6 | 24:06.20 | 4:01.67 | 108470 | 126611
7 | 28:08.12 | 9:25.21 | 126612 | 169007
8 | 37:33.33 | 3:32.67 | 169008 | 184974
9 | 41:06.25 | 8:43.73 | 184975 | 224272
10 | 49:50.23 | 5:09.43 | 224273 | 247490
11 | 54:59.66 | 4:07.02 | 247491 | 266017
12 | 59:06.68 | 4:56.33 | 266018 | 288250
13 | 64:03.26 | 5:00.64 | 288251 | 310814
14 | 69:04.15 | 3:34.55 | 310815 | 326919


Range status and errors

Selected range

Filename D:\EAC\Tangerine Dream - Plays Tangerine Dream.wav

Peak level 100.0 %
Range quality 100.0 %
Test CRC 5351C6D3
Copy CRC 5351C6D3
Copy OK

No errors occurred


AccurateRip summary

Track 1 not present in database
Track 2 not present in database
Track 3 not present in database
Track 4 not present in database
Track 5 not present in database
Track 6 not present in database
Track 7 not present in database
Track 8 not present in database
Track 9 not present in database
Track 10 not present in database
Track 11 not present in database
Track 12 not present in database
Track 13 not present in database
Track 14 not present in database

None of the tracks are present in the AccurateRip database

End of status report

[CUETools log; Date: 15.12.2017 21:50:16; Version: 2.1.4]
[CTDB TOCID: VQFe6j.rAUQ9L2NMbS2e8V2H1Z8-] found.
Track | CTDB Status
1 | (6/6) Accurately ripped
2 | (6/6) Accurately ripped
3 | (6/6) Accurately ripped
4 | (6/6) Accurately ripped
5 | (6/6) Accurately ripped
6 | (6/6) Accurately ripped
7 | (6/6) Accurately ripped
8 | (6/6) Accurately ripped
9 | (6/6) Accurately ripped
10 | (6/6) Accurately ripped
11 | (6/6) Accurately ripped
12 | (6/6) Accurately ripped
13 | (6/6) Accurately ripped
14 | (5/6) Accurately ripped
[AccurateRip ID: 00259f03-019553d5-ce11060e] found.
Track [ CRC | V2 ] Status
01 [d6793d52|34df6f3d] (0+5/5) Accurately ripped
02 [6d0b6f5f|c679608c] (0+5/5) Accurately ripped
03 [65659733|c6b024f7] (0+5/5) Accurately ripped
04 [89373795|df0c9b6c] (0+5/5) Accurately ripped
05 [df42579c|bd1ec335] (0+5/5) Accurately ripped
06 [bd35d15f|34205eee] (0+5/5) Accurately ripped
07 [83e41e2c|0e4800b2] (0+5/5) Accurately ripped
08 [d0474514|d6d88829] (0+5/5) Accurately ripped
09 [7152c877|f8e9b33a] (0+5/5) Accurately ripped
10 [c27040a2|761f6857] (0+5/5) Accurately ripped
11 [c109174a|ecbbf6e5] (0+5/5) Accurately ripped
12 [afae4fff|f1c07e00] (0+5/5) Accurately ripped
13 [45a59c69|90e62324] (0+5/5) Accurately ripped
14 [829ea995|d1e898e7] (0+4/4) Accurately ripped

Track Peak [ CRC32 ] [W/O NULL] [ LOG ]
– 100,0 [5351C6D3] [C8534A31] CRC32
01 100,0 [11DC43FE] [EA70E2BB]
02 100,0 [9F785432] [270446BD]
03 100,0 [50B10C81] [A7ED3E78]
04 100,0 [F9A38B3F] [2114CAA4]
05 100,0 [93178EBB] [EDCD860A]
06 100,0 [A74565AE] [BC2C5BE1]
07 100,0 [FC330F8F] [0E4561B4]
08 100,0 [8986EE61] [950C038D]
09 100,0 [6778A461] [C784E048]
10 100,0 [7AC3E8F4] [CA3AA8D3]
11 100,0 [6AAD68B4] [BD8FE767]
12 100,0 [FC08B9E9] [150C197D]
13 100,0 [020F9799] [D859EEEC]
14 100,0 [B5950739] [7110293F]

Thanks to original releaser