Tags
Language
Tags

Tangerine Dream - Poland - The Warsaw Concert (1984) [Reissue 2011]

Posted By: gribovar
Tangerine Dream - Poland - The Warsaw Concert (1984) [Reissue 2011]

Tangerine Dream - Poland - The Warsaw Concert (1984) [Reissue 2011]
EAC Rip | FLAC (tracks+.cue+log) - 426 MB | MP3 CBR 320 kbps (LAME 3.93) - 192 MB | Covers - 42 MB
Genre: Progressive Electronic, Berlin School | RAR 3% Rec. | Label: Esoteric Reactive (EREACCD 2018)

Esoteric Recordings are pleased to announce the release of a newly remastered edition of 'Poland-The Warsaw Concert' by Tangerine Dream. On the 10th December 1983, Edgar Froese, Chris Franke and Johannes Schmoelling performed a legendary concert in the Ice Stadium in Warsaw - a unique event, given the political situation in Poland at the time. The resulting 'live' album was issued as a double LP set on the Jive Electro label the following year to great acclaim. Of all the subsequent CD releases of the album, only two early editions, released in the USA & Germany, featured the full un-edited version of the original double LP. This newly remastered Edition fully restores the Entire Unedited Double LP Version to Compact Disc and includes a Lavishly Illustrated Deluxe Booklet with New Essay.

CD 1 Tracklist:
01. Poland
02. Tangent
03. Rare Bird

Total time: 42:32

CD 2 Tracklist:
01. Barbakane
02. Horizon

Total time: 39:15

Exact Audio Copy V1.0 beta 1 from 15. November 2010

EAC extraction logfile from 1. June 2011, 16:01

Tangerine Dream / Poland (2011 Esoteric Remaster) (Disc1)

Used drive : ATAPI iHAS324 Y Adapter: 0 ID: 1

Read mode : Secure
Utilize accurate stream : Yes
Defeat audio cache : Yes
Make use of C2 pointers : No

Read offset correction : 48
Overread into Lead-In and Lead-Out : No
Fill up missing offset samples with silence : Yes
Delete leading and trailing silent blocks : No
Null samples used in CRC calculations : Yes
Used interface : Native Win32 interface for Win NT & 2000
Gap handling : Appended to previous track

Used output format : User Defined Encoder
Selected bitrate : 768 kBit/s
Quality : High
Add ID3 tag : No
Command line compressor : C:\Program Files\Exact Audio Copy\Flac\flac.exe
Additional command line options : -8 -V -T "ARTIST=%a" -T "TITLE=%t" -T "ALBUM=%g" -T "DATE=%y" -T "TRACKNUMBER=%n" -T "TOTALTRACKS=%x" -T "GENRE=%m" -T "ALBUMARTIST=%v" -T "ALBUM ARTIST=%v" -T "COMMENT=EAC Secure Mode, Test & Copy, AccurateRip, FLAC -8" %s


TOC of the extracted CD

Track | Start | Length | Start sector | End sector
––––––––––––––––––––––––––––-
1 | 0:00.00 | 22:36.53 | 0 | 101752
2 | 22:36.53 | 15:53.04 | 101753 | 173231
3 | 38:29.57 | 4:01.67 | 173232 | 191373


Track 1

Filename C:\LosslessII\Tangerine Dream - Poland (1984) [FLAC] {2011 Esoteric Remaster}\Disc1\01 - Poland.wav

Pre-gap length 0:00:02.00

Peak level 99.4 %
Extraction speed 3.3 X
Track quality 100.0 %
Test CRC 0925360C
Copy CRC 0925360C
Track not present in AccurateRip database
Copy OK

Track 2

Filename C:\LosslessII\Tangerine Dream - Poland (1984) [FLAC] {2011 Esoteric Remaster}\Disc1\02 - Tangent.wav

Pre-gap length 0:00:01.65

Peak level 99.4 %
Extraction speed 4.3 X
Track quality 100.0 %
Test CRC 3A708ADF
Copy CRC 3A708ADF
Track not present in AccurateRip database
Copy OK

Track 3

Filename C:\LosslessII\Tangerine Dream - Poland (1984) [FLAC] {2011 Esoteric Remaster}\Disc1\03 - Rare Bird.wav

Pre-gap length 0:00:01.73

Peak level 99.4 %
Extraction speed 4.3 X
Track quality 100.0 %
Test CRC 33C2F3CB
Copy CRC 33C2F3CB
Track not present in AccurateRip database
Copy OK


None of the tracks are present in the AccurateRip database

No errors occurred

End of status report

==== Log checksum 0C10132E358B111AAE8FDB9EB38CC877EADCC7BB3C603A5C33D858B3DE7C0BF7 ====

[CUETools log; Date: 12.02.2020 23:26:41; Version: 2.1.4]
[CTDB TOCID: S7IvtMGM1YVrOgPD5nHE6P2IBXk-] found.
Track | CTDB Status
1 | (54/54) Accurately ripped
2 | (54/54) Accurately ripped
3 | (54/54) Accurately ripped
[AccurateRip ID: 00071db7-0016b73b-1a09f703] found.
Track [ CRC | V2 ] Status
01 [869fd422|accae81e] (03+11/20) Accurately ripped
02 [b4e12b42|4af54e4a] (03+11/20) Accurately ripped
03 [9570deb9|13ec8d05] (03+11/20) Accurately ripped
Offsetted by -655:
01 [c9cbda52] (00/20) No match (V2 was not tested)
02 [3c688d56] (00/20) No match (V2 was not tested)
03 [00a46ef9] (00/20) No match (V2 was not tested)
Offsetted by 6:
01 [93b03b42] (00/20) No match (V2 was not tested)
02 [be94e33a] (00/20) No match (V2 was not tested)
03 [23819839] (00/20) No match (V2 was not tested)

Track Peak [ CRC32 ] [W/O NULL] [ LOG ]
– 99,4 [EFDB5CA4] [32EF2083]
01 99,4 [0925360C] [407C15A8] CRC32
02 99,4 [3A708ADF] [D328CA32] CRC32
03 99,4 [33C2F3CB] [DF4C1E4A] CRC32

Exact Audio Copy V1.0 beta 1 from 15. November 2010

EAC extraction logfile from 1. June 2011, 15:00

Tangerine Dream / Poland (2011 Esoteric Remaster) (Disc2)

Used drive : ATAPI iHAS324 Y Adapter: 0 ID: 1

Read mode : Secure
Utilize accurate stream : Yes
Defeat audio cache : Yes
Make use of C2 pointers : No

Read offset correction : 48
Overread into Lead-In and Lead-Out : No
Fill up missing offset samples with silence : Yes
Delete leading and trailing silent blocks : No
Null samples used in CRC calculations : Yes
Used interface : Native Win32 interface for Win NT & 2000
Gap handling : Appended to previous track

Used output format : User Defined Encoder
Selected bitrate : 768 kBit/s
Quality : High
Add ID3 tag : No
Command line compressor : C:\Program Files\Exact Audio Copy\Flac\flac.exe
Additional command line options : -8 -V -T "ARTIST=%a" -T "TITLE=%t" -T "ALBUM=%g" -T "DATE=%y" -T "TRACKNUMBER=%n" -T "TOTALTRACKS=%x" -T "GENRE=%m" -T "ALBUMARTIST=%v" -T "ALBUM ARTIST=%v" -T "COMMENT=EAC Secure Mode, Test & Copy, AccurateRip, FLAC -8" %s


TOC of the extracted CD

Track | Start | Length | Start sector | End sector
––––––––––––––––––––––––––––-
1 | 0:00.00 | 18:04.41 | 0 | 81340
2 | 18:04.41 | 21:10.32 | 81341 | 176622


Track 1

Filename C:\LosslessII\Tangerine Dream - Poland (1984) [FLAC] {2011 Esoteric Remaster}\Disc2\01 - Barbakane.wav

Pre-gap length 0:00:02.00

Peak level 99.3 %
Extraction speed 3.1 X
Track quality 100.0 %
Test CRC 6F532E73
Copy CRC 6F532E73
Track not present in AccurateRip database
Copy OK

Track 2

Filename C:\LosslessII\Tangerine Dream - Poland (1984) [FLAC] {2011 Esoteric Remaster}\Disc2\02 - Horizon.wav

Pre-gap length 0:00:02.01

Peak level 99.4 %
Extraction speed 4.3 X
Track quality 100.0 %
Test CRC 3F6FB82B
Copy CRC 3F6FB82B
Track not present in AccurateRip database
Copy OK


None of the tracks are present in the AccurateRip database

No errors occurred

End of status report

==== Log checksum 9C71807A930491E69CA9E25AB4790A6CE74C473D82641EE857110D7779105DF7 ====

[CUETools log; Date: 12.02.2020 23:27:40; Version: 2.1.4]
[CTDB TOCID: 6X1S5pb9UveXL_hmHoRVYqaWiYY-] found.
Track | CTDB Status
1 | (55/55) Accurately ripped
2 | (55/55) Accurately ripped
[AccurateRip ID: 0003efac-000a9148-11093202] found.
Track [ CRC | V2 ] Status
01 [1e81c708|327cfa10] (03+11/20) Accurately ripped
02 [6ad174c2|ac0c3b79] (03+11/20) Accurately ripped
Offsetted by -655:
01 [f2a01bce] (00/20) No match (V2 was not tested)
02 [4782e2a9] (00/20) No match (V2 was not tested)
Offsetted by 6:
01 [1c2c4bec] (00/20) No match (V2 was not tested)
02 [ec8271cc] (00/20) No match (V2 was not tested)

Track Peak [ CRC32 ] [W/O NULL] [ LOG ]
– 99,4 [295AFFD8] [F2D8C364]
01 99,3 [6F532E73] [2405EEC0] CRC32
02 99,4 [3F6FB82B] [1CB9A604] CRC32

Thanks to Zamster

See also:
Tangerine Dream - The Electronic Journey (2010) [10CD Box Set]
Tangerine Dream - The Dream Roots Collection [5CD Box Set] (1996)
Tangerine Dream - Electronic Meditation (1970) [Reissue 1996]
Tangerine Dream - Alpha Centauri (1971) [Reissue 2011]
Tangerine Dream - Zeit (1972) [Reissue 1996]
Tangerine Dream - Atem (1973) [Reissue 2011]
Tangerine Dream - Phaedra (1974) [Definitive Edition 1995]
Tangerine Dream - Ricochet (1975) [Definitive Edition 1995]
Tangerine Dream - Stratosfear (1976) [Definitive Edition 1995]
Tangerine Dream - Sorcerer (OST) (1977) [Reissue 2011]
Tangerine Dream - Force Majeure (1979) [Reissue 1995]
Tangerine Dream - Pergamon (1980) [Reissue 1996]
Tangerine Dream - White Eagle (1982) [Reissue 1995]
Tangerine Dream - Logos Live (1982) [Definitive Edition 1995]
Tangerine Dream - Firestarter ...ion Picture Soundtrack] (1984)
Tangerine Dream - Legend (OST) (1986) [Reissue 1995]
Tangerine Dream - Tyger (1987) [Reissue 1996]
Tangerine Dream - Optical Race (1988)
Tangerine Dream - Live Miles (1988) [Reissue 2003]
Tangerine Dream - Lily On The Beach (1989)
Tangerine Dream - Melrose (1990)
Tangerine Dream - Dead Solid Perfect (OST) (1990)
Tangerine Dream - The Park Is Mine (OST) (1991)
Tangerine Dream - Deadly Care (OST) (1992)
Tangerine Dream - Quinoa (1992) [Reissue 2009]
Tangerine Dream - Catch Me If You Can (OST) (1994)
Tangerine Dream - Tyranny Of Beauty (1995)
Tangerine Dream - Goblins' Club (1996)
Tangerine Dream - Zoning (OST) (1996)
Tangerine Dream - The Analogue Space Years 1969-1973 (1998)
Tangerine Dream - The Hollywood Years Vol. 1 (1998)
Tangerine Dream - The Hollywood Years Vol. 2 (1998)
Tangerine Dream - Antique Dreams (2000)
Tangerine Dream - Soundmill Navigator (2000)
Tangerine Dream - The Bootleg Box Set Vol. 1 [7CD] (2003)
Tangerine Dream - Purgatorio (2004)
Tangerine Dream - Arizona Live '92 (2004) [Reissue 2009]
Tangerine Dream - Cleveland - June 24th 1986 (2005)
Tangerine Dream - Blue Dawn (2006)
Tangerine Dream - The Essential Tangerine Dream (2006)
Tangerine Dream - Plays Tangerine Dream (2006)
Tangerine Dream - Views From A Red Train (2008)
Tangerine Dream - Booster (2008)
Tangerine Dream - Booster Vol. 2 (2008)
Tangerine Dream - The Antholog... Space Years Volume One (2008)
Tangerine Dream - Music For Sports: Cool Races (2009)
Tangerine Dream - Music For Sports: Power And Motion (2009)
Tangerine Dream - DM V (Dream Mixes V) (2010)
Tangerine Dream - The London Eye Concert (2010)
Tangerine Dream - The Virgin Years 1974-1978 [3CD Box Set] (2011)
Tangerine Dream - The Official...ies Vol.1 [4CD Box Set] (2015)
Edgar Froese - 2 Albums (1974-1995)
Edgar Froese - Ages (1978) [Reissue 1997]
Edgar Froese - Pinnacles (1983)