Tags
Language
Tags

Tangerine Dream - Ricochet (1975) [Definitive Edition 1995] (Repost)

Posted By: gribovar
Tangerine Dream - Ricochet (1975) [Definitive Edition 1995] (Repost)

Tangerine Dream - Ricochet (1975) [Definitive Edition 1995]
EAC Rip | APE (image+.cue+log) - 212 MB | MP3 CBR 320 kbps (LAME 3.93) - 89 MB | Covers - 17 MB
Genre: Progressive Electronic, Berlin School | RAR 3% Rec. | Label: Virgin Records (7243 8 40064 26)

Electronic trio Tangerine Dream embrace their equipment and take their audience on an actual journey through this especially good, two-part showcase recorded live in France and Britain. Featuring the early and memorable lineup of Chris Franke, Edgar Froese, and Peter Baumann, Ricochet continuously evolves to the next plateau of pulsing experimentation without getting lost or over-indulgent like other bands of the genre. This album finds the three at a time when they knew exactly what they were doing; rocking without the drums, and looking over their shoulder to make sure the audience was still enjoying themselves. It takes a snapshot of the band when they were young, influential, and at the height of the genre.
Tracklist:
01. Ricochet Part One
02. Ricochet Part Two

Total time: 38:06

Exact Audio Copy V0.99 prebeta 5 from 4. May 2009

EAC extraction logfile from 5. December 2009, 22:34

Tangerine Dream / Ricochet

Used drive : ASUS DRW-1814BL Adapter: 0 ID: 0

Read mode : Secure
Utilize accurate stream : Yes
Defeat audio cache : Yes
Make use of C2 pointers : No

Read offset correction : 6
Overread into Lead-In and Lead-Out : No
Fill up missing offset samples with silence : Yes
Delete leading and trailing silent blocks : No
Null samples used in CRC calculations : Yes
Used interface : Native Win32 interface for Win NT & 2000

Used output format : Internal WAV Routines
Sample format : 44.100 Hz; 16 Bit; Stereo


TOC of the extracted CD

Track | Start | Length | Start sector | End sector
––––––––––––––––––––––––––––-
1 | 0:00.00 | 16:59.60 | 0 | 76484
2 | 16:59.60 | 21:05.53 | 76485 | 171412


Range status and errors

Selected range

Filename D:\EAC\Tangerine Dream - Ricochet.wav

Peak level 97.3 %
Range quality 100.0 %
Test CRC CDECA8AA
Copy CRC CDECA8AA
Copy OK

No errors occurred


AccurateRip summary

Track 1 accurately ripped (confidence 13) [AA3D8401]
Track 2 accurately ripped (confidence 13) [A4658A7C]

All tracks accurately ripped

End of status report

[CUETools log; Date: 19.11.2016 1:05:25; Version: 2.1.4]
[CTDB TOCID: yzzkT0REGEwM6yWmo24CTrtGRA0-] found.
Track | CTDB Status
1 | (230/233) Accurately ripped
2 | (230/233) Accurately ripped
[AccurateRip ID: 0003c85a-000a2e4a-0608ed02] found.
Track [ CRC | V2 ] Status
01 [aa3d8401|69539eec] (023+021/264) Accurately ripped
02 [a4658a7c|24481312] (023+021/263) Accurately ripped
Offsetted by -88:
01 [f29ecbfb] (022/264) Accurately ripped
02 [e08d2ee2] (023/263) Accurately ripped
Offsetted by -64:
01 [d9d63951] (054/264) Accurately ripped
02 [51be392c] (052/263) Accurately ripped
Offsetted by -752:
01 [e8d68737] (000/264) No match (V2 was not tested)
02 [8b1d3c26] (000/263) No match (V2 was not tested)
Offsetted by -94:
01 [23740917] (000/264) No match (V2 was not tested)
02 [44d36d32] (000/263) No match (V2 was not tested)

Track Peak [ CRC32 ] [W/O NULL] [ LOG ]
– 97,3 [CDECA8AA] [637F803E] CRC32
01 96,7 [84A255B6] [0454EDB3]
02 97,3 [7BDD4553] [A697DDFD]