Subcategories
Tags
Language
Tags

Tangerine Dream - Rocking Mars (2005)

Posted By: gribovar
Tangerine Dream - Rocking Mars (2005)

Tangerine Dream - Rocking Mars (2005)
EAC Rip | FLAC (image+.cue+log) - 646 MB | MP3 CBR 320 kbps (LAME 3.93) - 229 MB | Covers (7 MB) included
Genre: Electronic, Berlin School, New Age | RAR 3% Rec. | Label: TDI Music (CD044)

In June 1999, Tangerine Dream performed a one-off concert during the Klangart Festival in Osnabrück in Northern Germany, presenting the then brand-new album Mars Polaris. The complete album was performed, though the track order differs from that on the album. The music performed is essentially identical to the studio versions, with some additional guitar and percussion work.

CD 1 Tracklist:
01. Comet's Figure Head
02. Rim Of Schiaparelli
03. Deep Space Cruiser
04. Pilots Of The Ether Belt
05. Spiral Star Date
06. Mars Mission Counter

Total time: 48:49

CD 2 Tracklist:
01. Ça Va-Ça Marche-Ça Ira Encore
02. Astrophobia
03. Tharsis Maneuver
04. Outland
05. Dies Martis
06. Terra Gravity
07. Wormhole Number Five
08. Red Ocean

Total time: 45:23

EAC extraction logfile from 17. September 2006, 12:32 for CD
Tangerine Dream / Rocking Mars

Used drive : BENQ DVD DD DW1640 Adapter: 0 ID: 2
Read mode : Secure with NO C2, accurate stream, disable cache
Read offset correction : 618
Overread into Lead-In and Lead-Out : No

Used output format : Internal WAV Routines
44.100 Hz; 16 Bit; Stereo

Other options :
Fill up missing offset samples with silence : Yes
Delete leading and trailing silent blocks : No
Native Win32 interface for Win NT & 2000


Range status and errors
Selected range
Filename G:\rip\Tangerine Dream - Rocking Mars\Tangerine Dream - Rocking Mars.wav

Peak level 99.9 %
Range quality 100.0 %
CRC AE13678C
Copy OK

No errors occured

End of status report

[CUETools log; Date: 04.05.2021 13:42:17; Version: 2.1.4]
[CTDB TOCID: TotEuXTXanFZr.N0pruxkmnkTT8-] found.
Track | CTDB Status
1 | (29/30) Accurately ripped
2 | (29/30) Accurately ripped
3 | (29/30) Accurately ripped
4 | (29/30) Accurately ripped
5 | (29/30) Accurately ripped
6 | (30/30) Accurately ripped
[AccurateRip ID: 000c350f-00406231-590b7006] found.
Track [ CRC | V2 ] Status
01 [52e49f53|e8239340] (07+02/25) Accurately ripped
02 [23a3a7af|7187b779] (07+02/25) Accurately ripped
03 [6f794051|99fd1424] (07+02/25) Accurately ripped
04 [9271da80|366527d0] (07+02/25) Accurately ripped
05 [063e8789|02771e58] (07+02/25) Accurately ripped
06 [630724d7|f4ab2aa5] (07+02/25) Accurately ripped
Offsetted by -24:
01 [9afdd18e] (10/25) Accurately ripped
02 [e385e82b] (10/25) Accurately ripped
03 [6af11eb4] (10/25) Accurately ripped
04 [6026550b] (10/25) Accurately ripped
05 [36345ab0] (10/25) Accurately ripped
06 [945a2267] (10/25) Accurately ripped

Track Peak [ CRC32 ] [W/O NULL] [ LOG ]
– 99,9 [07B75F37] [AE13678C] W/O NULL
01 99,9 [74E3209B] [B0CFA848]
02 99,9 [F7B6D1A2] [054FD5F1]
03 92,6 [9B0EB05D] [22567CD3]
04 99,9 [693DEA49] [7171FF01]
05 99,9 [163C4E9A] [07A8D522]
06 88,5 [AEDCAAEE] [F06FD254]

EAC extraction logfile from 17. September 2006, 12:41 for CD
Tangerine Dream / Rocking Mars CD2

Used drive : BENQ DVD DD DW1640 Adapter: 0 ID: 2
Read mode : Secure with NO C2, accurate stream, disable cache
Read offset correction : 618
Overread into Lead-In and Lead-Out : No

Used output format : Internal WAV Routines
44.100 Hz; 16 Bit; Stereo

Other options :
Fill up missing offset samples with silence : Yes
Delete leading and trailing silent blocks : No
Native Win32 interface for Win NT & 2000


Range status and errors
Selected range
Filename G:\rip\Tangerine Dream - Rocking Mars CD2\Tangerine Dream - Rocking Mars CD2.wav

Peak level 99.9 %
Range quality 99.9 %
CRC 943F8F02
Copy OK

No errors occured

End of status report

[CUETools log; Date: 04.05.2021 13:42:58; Version: 2.1.4]
[CTDB TOCID: g_gl7AUoBgIAWvsJo05432qEYnM-] found.
Track | CTDB Status
1 | (30/31) Accurately ripped
2 | (30/31) Accurately ripped
3 | (30/31) Accurately ripped
4 | (30/31) Accurately ripped
5 | (30/31) Accurately ripped
6 | (30/31) Accurately ripped
7 | (30/31) Accurately ripped
8 | (31/31) Accurately ripped
[AccurateRip ID: 00105883-0069ac61-6a0aa208] found.
Track [ CRC | V2 ] Status
01 [6b938ca8|03410396] (07+02/26) Accurately ripped
02 [976d87f6|6415b203] (07+02/26) Accurately ripped
03 [a3826a22|c9a0e9ff] (07+02/26) Accurately ripped
04 [e78ed672|834d9dd0] (07+02/26) Accurately ripped
05 [8139d4c6|25a429cf] (07+02/26) Accurately ripped
06 [35893e5d|68ff1d3d] (07+02/26) Accurately ripped
07 [676675eb|6ec7aa7b] (07+02/26) Accurately ripped
08 [97e1f859|5f35cf71] (07+02/25) Accurately ripped
Offsetted by -24:
01 [43919120] (11/26) Accurately ripped
02 [1d232151] (11/26) Accurately ripped
03 [1504c91e] (11/26) Accurately ripped
04 [77fb4527] (11/26) Accurately ripped
05 [434bc4d3] (11/26) Accurately ripped
06 [3ad53fed] (11/26) Accurately ripped
07 [e2ee1ef3] (11/26) Accurately ripped
08 [15497aae] (10/25) Accurately ripped

Track Peak [ CRC32 ] [W/O NULL] [ LOG ]
– 99,9 [B379AE3B] [943F8F02] W/O NULL
01 99,9 [54F7C815] [0305E7B5]
02 99,9 [DB8E43C3] [EE200FFB]
03 99,5 [64FD2EDC] [0C18BF84]
04 99,9 [F4585E36] [067162F7]
05 85,0 [B45BA72E] [FD8C5696]
06 94,3 [EB0CDB2B] [581FAE59]
07 94,9 [45F207C8] [A468B70C]
08 98,2 [5055A175] [B85BD540]

Thanks to the original releaser

See also:
Tangerine Dream - The Electronic Journey (2010) [10CD Box Set]
Tangerine Dream - The Dream Roots Collection [5CD Box Set] (1996)
Tangerine Dream - Electronic Meditation (1970) [Reissue 1996]
Tangerine Dream - Alpha Centauri (1971) [Reissue 1996]
Tangerine Dream - Alpha Centauri (1971) [Reissue 2011]
Tangerine Dream - Zeit (1972) [Reissue 1996]
Tangerine Dream - Atem (1973) [Reissue 2011]
Tangerine Dream - Phaedra (1974) [Original Edition]
Tangerine Dream - Phaedra (1974) [Definitive Edition 1995]
Tangerine Dream - Rubycon (1975) [Non-remastered, Reissue 1988]
Tangerine Dream - Rubycon (1975) [Definitive Edition 1995]
Tangerine Dream - Ricochet (1975) [Definitive Edition 1995]
Tangerine Dream - Stratosfear (1976) [Definitive Edition 1995]
Tangerine Dream - Encore (1977)
Tangerine Dream - Sorcerer (OST) (1977) [Reissue 2011]
Tangerine Dream - Force Majeure (1979) [Reissue 1995]
Tangerine Dream - Tangram (1980)
Tangerine Dream - Pergamon (1980) [Reissue 1996]
Tangerine Dream - White Eagle (1982) [Reissue 1995]
Tangerine Dream - Logos Live (1982) [Definitive Edition 1995]
Tangerine Dream - Hyperborea (1983)
Tangerine Dream - Wavelength [OST] (1983)
Tangerine Dream - Poland - The Warsaw Concert (1984) [Reissue 2011]
Tangerine Dream - Firestarter ...ion Picture Soundtrack] (1984)
Tangerine Dream - Underwater Sunlight (1986) [Non-Remastered]
Tangerine Dream - Underwater Sunlight (1986) [Reissue 1996]
Tangerine Dream - Green Desert [Recorded 1973] (1986)
Tangerine Dream - Legend (OST) (1986) [Reissue 1995]
Tangerine Dream - Tyger (1987) [Reissue 1992, US version]
Tangerine Dream - Tyger (1987) [Reissue 1996]
Tangerine Dream - Three O'Clock High [OST] (1987)
Tangerine Dream - Optical Race (1988)
Tangerine Dream - Live Miles (1988) [Reissue 2003]
Tangerine Dream - Lily On The Beach (1989)
Tangerine Dream - Melrose (1990)
Tangerine Dream - Dead Solid Perfect (OST) (1990)
Tangerine Dream - The Park Is Mine (OST) (1991)
Tangerine Dream - Rockoon (1992) [Reissue 2000]
Tangerine Dream - Deadly Care (OST) (1992)
Tangerine Dream - Quinoa (1992) [Reissue 2009]
Tangerine Dream - The Story Of Tangerine Dream (1992)
Tangerine Dream - Catch Me If You Can (OST) (1994)
Tangerine Dream - Tyranny Of Beauty (1995)
Tangerine Dream - Goblins' Club (1996)
Tangerine Dream - Zoning (OST) (1996)
Tangerine Dream - The Analogue Space Years 1969-1973 (1998)
Tangerine Dream - The Hollywood Years Vol. 1 (1998)
Tangerine Dream - The Hollywood Years Vol. 2 (1998)
Tangerine Dream - Atlantic Bridges [Recorded 1988-1997] (1998)
Tangerine Dream - Antique Dreams (2000)
Tangerine Dream - Soundmill Navigator (2000)
Tangerine Dream - The Bootleg Box Set Vol. 1 [7CD] (2003)
Tangerine Dream - Rockface: Li...ey / San Francisco 1988 (2003)
Tangerine Dream - Purgatorio (2004)
Tangerine Dream - Arizona Live '92 (2004) [Reissue 2009]
Tangerine Dream - Phaedra 2005 (2005) [Japanese Edition 2009]
Tangerine Dream - Cleveland - June 24th 1986 (2005)
Tangerine Dream - Blue Dawn (2006)
Tangerine Dream - The Essential Tangerine Dream (2006)
Tangerine Dream - Plays Tangerine Dream (2006)
Tangerine Dream - One Times One (2007)
Tangerine Dream - Springtime In Nagasaki (2007)
Tangerine Dream - Summer In Nagasaki (2007)
Tangerine Dream - Autumn In Hiroshima (2008)
Tangerine Dream - Views From A Red Train (2008)
Tangerine Dream - Booster (2008)
Tangerine Dream - Booster Vol. 2 (2008)
Tangerine Dream - The Antholog... Space Years Volume One (2008)
Tangerine Dream - Flame (2009)
Tangerine Dream - Booster III (2009)
Tangerine Dream - Axiat [Recorded 1999-2005] (2009)
Tangerine Dream - Music For Sports: Cool Races (2009)
Tangerine Dream - Music For Sports: Power And Motion (2009)
Tangerine Dream - Under Cover - Chapter One (2010)
Tangerine Dream - DM V (Dream Mixes V) (2010)
Tangerine Dream - The Endless Season (2010)
Tangerine Dream - The London Eye Concert (2010)
Tangerine Dream - Zeitgeist Concert [3CD Box Set] (2010)
Tangerine Dream - Mona Da Vinci (2011)
Tangerine Dream - The Virgin Years 1974-1978 [3CD Box Set] (2011)
Tangerine Dream - Booster IV (2011)
Tangerine Dream - Booster V (2012)
Tangerine Dream - The Official...ies Vol.1 [4CD Box Set] (2015)
Tangerine Dream - Live At The Tempodrome Berlin (2006) [DVD]
Tangerine Dream - Live At Coventry Cathedral 1975 (2007) [DVD]
Tangerine Dream - Madcap's Flaming Duty [DVD] (2007)
Tangerine Dream - 35th Phaedra Anniversary Concert [2DVD] (2007)
Edgar Froese - 2 Albums (1974-1995)
Edgar Froese - Ages (1978) [Reissue 1997]
Edgar Froese - Pinnacles (1983)