Tags
Language
Tags

Tangerine Dream - Rockoon (1992) [Reissue 2000]

Posted By: gribovar
Tangerine Dream - Rockoon (1992) [Reissue 2000]

Tangerine Dream - Rockoon (1992) [Reissue 2000]
EAC Rip | FLAC (image+.cue+log) - 382 MB | MP3 CBR 320 kbps (LAME 3.93) - 135 MB | Covers - 15 MB
Genre: Progressive Electronic | RAR 3% Rec. | Label: Castle Music (CMACD591)

Rockoon is one of Tangerine Dream's Miramar CDs and one of their Grammy-nominated albums. It features their signature Berlin school electronica with rock & roll textures. It is rhythmic but not techno. There are heavy sequences and some excellent atmospheric passages, but the excellence does not last. It seems like Tangerine Dream just mailed this one in.
Tracklist:
01. Big City Dwarves
02. Red Roadster
03. Touchwood
04. Graffiti Street
05. Funky Atlanta
06. Spanish Love
07. Lifted Veil
08. Penguin Reference
09. Body Corporate
10. Rockoon
11. Girls On Broadway

Total time: 57:37

Exact Audio Copy V0.99 prebeta 3 from 28. July 2007

EAC extraction logfile from 26. January 2008, 18:42

Tangerine Dream / Rockoon

Used drive : PLEXTOR DVDR PX-716A Adapter: 2 ID: 1

Read mode : Secure
Utilize accurate stream : Yes
Defeat audio cache : Yes
Make use of C2 pointers : No

Read offset correction : 30
Overread into Lead-In and Lead-Out : No
Fill up missing offset samples with silence : Yes
Delete leading and trailing silent blocks : No
Null samples used in CRC calculations : Yes
Used interface : Installed external ASPI interface

Used output format : Internal WAV Routines
Sample format : 44.100 Hz; 16 Bit; Stereo


TOC of the extracted CD

Track | Start | Length | Start sector | End sector
––––––––––––––––––––––––––––-
1 | 0:00.33 | 6:07.10 | 33 | 27567
2 | 6:07.43 | 8:11.50 | 27568 | 64442
3 | 14:19.18 | 4:27.02 | 64443 | 84469
4 | 18:46.20 | 4:47.45 | 84470 | 106039
5 | 23:33.65 | 4:09.03 | 106040 | 124717
6 | 27:42.68 | 5:39.20 | 124718 | 150162
7 | 33:22.13 | 3:36.00 | 150163 | 166362
8 | 36:58.13 | 4:47.60 | 166363 | 187947
9 | 41:45.73 | 3:49.07 | 187948 | 205129
10 | 45:35.05 | 7:20.20 | 205130 | 238149
11 | 52:55.25 | 4:41.35 | 238150 | 259259


Range status and errors

Selected range

Filename C:\TD\Tangerine Dream - Rockoon\Tangerine Dream - Rockoon.wav

Peak level 94.5 %
Range quality 99.9 %
Test CRC E2D6948E
Copy CRC E2D6948E
Copy OK

No errors occurred


AccurateRip summary

Track 1 cannot be verified as accurate (confidence 2) [934DC667], AccurateRip returned [AABF87EB]
Track 2 cannot be verified as accurate (confidence 2) [12AD5051], AccurateRip returned [2FE32C19]
Track 3 cannot be verified as accurate (confidence 2) [A7639E8F], AccurateRip returned [33D350EF]
Track 4 cannot be verified as accurate (confidence 2) [A7EF40EF], AccurateRip returned [6C3FF01F]
Track 5 cannot be verified as accurate (confidence 2) [BDF4ACF2], AccurateRip returned [1C41AC4E]
Track 6 cannot be verified as accurate (confidence 2) [E594C70F], AccurateRip returned [9174F7D9]
Track 7 cannot be verified as accurate (confidence 2) [8C30F3E4], AccurateRip returned [5392EEB4]
Track 8 cannot be verified as accurate (confidence 2) [359A895E], AccurateRip returned [32CC3904]
Track 9 cannot be verified as accurate (confidence 2) [A53D1E74], AccurateRip returned [D172B21A]
Track 10 cannot be verified as accurate (confidence 2) [CD7D69ED], AccurateRip returned [1856460B]
Track 11 cannot be verified as accurate (confidence 3) [4DCD83F5], AccurateRip returned [807304EF]

No tracks could be verified as accurate
You may have a different pressing from the one(s) in the database

End of status report

[CUETools log; Date: 10.02.2021 1:43:46; Version: 2.1.4]
Pregap length 00:00:33.
[CTDB TOCID: QtkA.OCE9TZcnOhpKx4aD.BWbEc-] found.
Track | CTDB Status
1 | (59/63) Accurately ripped
2 | (58/63) Accurately ripped
3 | (59/63) Accurately ripped
4 | (58/63) Accurately ripped
5 | (58/63) Accurately ripped
6 | (59/63) Accurately ripped
7 | (59/63) Accurately ripped
8 | (59/63) Accurately ripped
9 | (59/63) Accurately ripped
10 | (59/63) Accurately ripped
11 | (56/63) Accurately ripped
[AccurateRip ID: 0018a1ce-00d15bd5-8a0d800b] found.
Track [ CRC | V2 ] Status
01 [934dc667|cabf65fa] (03+03/71) Accurately ripped
02 [12ad5051|da782d97] (03+03/71) Accurately ripped
03 [a7639e8f|37e9f17f] (03+03/71) Accurately ripped
04 [a7ef40ef|ebb31920] (03+03/70) Accurately ripped
05 [bdf4acf2|70c7339a] (03+03/70) Accurately ripped
06 [e594c70f|08f21043] (03+03/70) Accurately ripped
07 [8c30f3e4|1f80ea1b] (03+03/70) Accurately ripped
08 [359a895e|c29e49b2] (03+03/69) Accurately ripped
09 [a53d1e74|5493d63c] (03+03/69) Accurately ripped
10 [cd7d69ed|06aa0154] (03+03/68) Accurately ripped
11 [4dcd83f5|298373d4] (03+03/68) Accurately ripped
Offsetted by 71:
01 [4861c289] (02/71) Accurately ripped
02 [22c116f5] (02/71) Accurately ripped
03 [817bd8bf] (02/71) Accurately ripped
04 [828a5907] (02/70) Accurately ripped
05 [fe852e40] (02/70) Accurately ripped
06 [23ee9be4] (02/70) Accurately ripped
07 [3e20a0cc] (02/70) Accurately ripped
08 [88483341] (02/69) Accurately ripped
09 [0c691a57] (02/69) Accurately ripped
10 [d9b2074c] (02/68) Accurately ripped
11 [0b999962] (02/68) Accurately ripped
Offsetted by 750:
01 [aabf87eb] (25/71) Accurately ripped
02 [2fe32c19] (25/71) Accurately ripped
03 [33d350ef] (26/71) Accurately ripped
04 [6c3ff01f] (26/70) Accurately ripped
05 [1c41ac4e] (26/70) Accurately ripped
06 [9174f7d9] (26/70) Accurately ripped
07 [5392eeb4] (26/70) Accurately ripped
08 [32cc3904] (25/69) Accurately ripped
09 [d172b21a] (25/69) Accurately ripped
10 [1856460b] (24/68) Accurately ripped
11 [807304ef] (25/68) Accurately ripped
Offsetted by -185:
01 [5dbbf489] (02/71) Accurately ripped
02 [d326daf5] (02/71) Accurately ripped
03 [84bf88bf] (02/71) Accurately ripped
04 [da7f3107] (00/70) No match (V2 was not tested)
05 [93ebec40] (00/70) No match (V2 was not tested)
06 [6e6298e4] (00/70) No match (V2 was not tested)
07 [5798c8cc] (00/70) No match (V2 was not tested)
08 [1274ae41] (00/69) No match (V2 was not tested)
09 [bc779557] (00/69) No match (V2 was not tested)
10 [07d3de4c] (00/68) No match (V2 was not tested)
11 [6daeee62] (00/68) No match (V2 was not tested)
Offsetted by -129:
01 [31103999] (00/71) No match (V2 was not tested)
02 [b4909815] (00/71) No match (V2 was not tested)
03 [5c08ba3f] (00/71) No match (V2 was not tested)
04 [5f41a1c7] (00/70) No match (V2 was not tested)
05 [c33d72b0] (00/70) No match (V2 was not tested)
06 [f619398c] (00/70) No match (V2 was not tested)
07 [1a06800c] (00/70) No match (V2 was not tested)
08 [bc3af359] (00/69) No match (V2 was not tested)
09 [55f46a6f] (00/69) No match (V2 was not tested)
10 [c5bc7744] (00/68) No match (V2 was not tested)
11 [203a43ca] (00/68) No match (V2 was not tested)

Track Peak [ CRC32 ] [W/O NULL] [ LOG ]
– 94,5 [E2D6948E] [B7F75833] CRC32
01 94,5 [C44DD6F0] [4956987F]
02 94,5 [F2F17151] [39D79664]
03 94,5 [3892DE01] [922C3011]
04 94,5 [F675527B] [CB075623]
05 94,5 [6D093BA1] [5091F143]
06 94,5 [FA0905CB] [8C3E6479]
07 94,5 [AE97E7EB] [40151939]
08 94,5 [080F7B63] [4D9A6B69]
09 94,5 [BDCA8615] [AF57EA3A]
10 94,5 [7BE93779] [B094DAE5]
11 94,5 [1839EBF0] [0718EC1A]

Thanks to friend23

See also:
Tangerine Dream - The Electronic Journey (2010) [10CD Box Set]
Tangerine Dream - The Dream Roots Collection [5CD Box Set] (1996)
Tangerine Dream - Electronic Meditation (1970) [Reissue 1996]
Tangerine Dream - Alpha Centauri (1971) [Reissue 2011]
Tangerine Dream - Zeit (1972) [Reissue 1996]
Tangerine Dream - Atem (1973) [Reissue 2011]
Tangerine Dream - Phaedra (1974) [Original Edition]
Tangerine Dream - Phaedra (1974) [Definitive Edition 1995]
Tangerine Dream - Ricochet (1975) [Definitive Edition 1995]
Tangerine Dream - Stratosfear (1976) [Definitive Edition 1995]
Tangerine Dream - Sorcerer (OST) (1977) [Reissue 2011]
Tangerine Dream - Force Majeure (1979) [Reissue 1995]
Tangerine Dream - Tangram (1980)
Tangerine Dream - Pergamon (1980) [Reissue 1996]
Tangerine Dream - White Eagle (1982) [Reissue 1995]
Tangerine Dream - Logos Live (1982) [Definitive Edition 1995]
Tangerine Dream - Poland - The Warsaw Concert (1984) [Reissue 2011]
Tangerine Dream - Firestarter ...ion Picture Soundtrack] (1984)
Tangerine Dream - Legend (OST) (1986) [Reissue 1995]
Tangerine Dream - Tyger (1987) [Reissue 1996]
Tangerine Dream - Three O'Clock High [OST] (1987)
Tangerine Dream - Optical Race (1988)
Tangerine Dream - Live Miles (1988) [Reissue 2003]
Tangerine Dream - Lily On The Beach (1989)
Tangerine Dream - Melrose (1990)
Tangerine Dream - Dead Solid Perfect (OST) (1990)
Tangerine Dream - The Park Is Mine (OST) (1991)
Tangerine Dream - Deadly Care (OST) (1992)
Tangerine Dream - Quinoa (1992) [Reissue 2009]
Tangerine Dream - Catch Me If You Can (OST) (1994)
Tangerine Dream - Tyranny Of Beauty (1995)
Tangerine Dream - Goblins' Club (1996)
Tangerine Dream - Zoning (OST) (1996)
Tangerine Dream - The Analogue Space Years 1969-1973 (1998)
Tangerine Dream - The Hollywood Years Vol. 1 (1998)
Tangerine Dream - The Hollywood Years Vol. 2 (1998)
Tangerine Dream - Antique Dreams (2000)
Tangerine Dream - Soundmill Navigator (2000)
Tangerine Dream - The Bootleg Box Set Vol. 1 [7CD] (2003)
Tangerine Dream - Purgatorio (2004)
Tangerine Dream - Arizona Live '92 (2004) [Reissue 2009]
Tangerine Dream - Phaedra 2005 (2005) [Japanese Edition 2009]
Tangerine Dream - Cleveland - June 24th 1986 (2005)
Tangerine Dream - Blue Dawn (2006)
Tangerine Dream - The Essential Tangerine Dream (2006)
Tangerine Dream - Plays Tangerine Dream (2006)
Tangerine Dream - Views From A Red Train (2008)
Tangerine Dream - Booster (2008)
Tangerine Dream - Booster Vol. 2 (2008)
Tangerine Dream - The Antholog... Space Years Volume One (2008)
Tangerine Dream - Music For Sports: Cool Races (2009)
Tangerine Dream - Music For Sports: Power And Motion (2009)
Tangerine Dream - DM V (Dream Mixes V) (2010)
Tangerine Dream - The London Eye Concert (2010)
Tangerine Dream - The Virgin Years 1974-1978 [3CD Box Set] (2011)
Tangerine Dream - The Official...ies Vol.1 [4CD Box Set] (2015)
Tangerine Dream - Live At Coventry Cathedral 1975 (2007) [DVD]
Edgar Froese - 2 Albums (1974-1995)
Edgar Froese - Ages (1978) [Reissue 1997]
Edgar Froese - Pinnacles (1983)