Tags
Language
Tags

Tangerine Dream - Sorcerer (OST) (1977) [Reissue 2011]

Posted By:
Tangerine Dream - Sorcerer (OST) (1977) [Reissue 2011]

Tangerine Dream - Sorcerer (OST) (1977) [Reissue 2011]
EAC Rip | FLAC (tracks+.cue+log) - 216 MB | MP3 CBR 320 kbps (LAME 3.93) - 106 MB | Covers - 193 MB
Genre: Progressive Electronic, Soundtrack | RAR 3% Rec. | Label: Esoteric Reactive (EREACD 1023)

Esoteric Recordings are pleased to announce the release of a newly re-mastered edition of Tangerine Dream’s classic soundtrack to the legendary film Sorcerer, directed by William Friedkin in 1976. Tangerine Dream members Edgar Froese, Christopher Franke and Peter Baumann composed a stunning electronic score which perfectly accompanied Ffriedkin’s imagary and was the band s first commission for a Hollywood movie. This Esoteric Reactive edition is newly re-mastered, restores the original album artwork and includes a lavishly illustrated booklet with new essay.

Tracklist:
01. Main Title
02. Search
03. The Call
04. Creation
05. Vengeance
06. The Journey
07. Grind
08. Rain Forest
09. Abyss
10. The Mountain Road
11. Impressions Of Sorcerer
12. Betrayal (Sorcerer Theme)

Total time: 45:00

Exact Audio Copy V1.3 from 2. September 2016

EAC extraction logfile from 19. November 2019, 19:55

Tangerine Dream / Sorcerer

Used drive : PIONEER DVD-RW DVR-221L Adapter: 2 ID: 0

Read mode : Secure
Utilize accurate stream : Yes
Defeat audio cache : Yes
Make use of C2 pointers : No

Read offset correction : 6
Overread into Lead-In and Lead-Out : No
Fill up missing offset samples with silence : Yes
Delete leading and trailing silent blocks : No
Null samples used in CRC calculations : Yes
Used interface : Installed external ASPI interface
Gap handling : Appended to next track

Used output format : User Defined Encoder
Selected bitrate : 768 kBit/s
Quality : High
Add ID3 tag : No
Command line compressor : C:\Program Files\Exact Audio Copy\Flac\flac.exe
Additional command line options : -8 -V -T "ARTIST=%artist%" -T "TITLE=%title%" -T "ALBUM=%albumtitle%" -T "DATE=%year%" -T "TRACKNUMBER=%tracknr%" -T "GENRE=%genre%" %source%


TOC of the extracted CD

Track | Start | Length | Start sector | End sector
––––––––––––––––––––––––––––-
1 | 0:00.00 | 5:33.20 | 0 | 24994
2 | 5:33.20 | 2:58.47 | 24995 | 38391
3 | 8:31.67 | 2:10.18 | 38392 | 48159
4 | 10:42.10 | 5:02.22 | 48160 | 70831
5 | 15:44.32 | 5:35.51 | 70832 | 96007
6 | 21:20.08 | 2:02.64 | 96008 | 105221
7 | 23:22.72 | 3:00.35 | 105222 | 118756
8 | 26:23.32 | 2:41.00 | 118757 | 130831
9 | 29:04.32 | 7:13.19 | 130832 | 163325
10 | 36:17.51 | 2:00.48 | 163326 | 172373
11 | 38:18.24 | 2:57.42 | 172374 | 185690
12 | 41:15.66 | 3:44.37 | 185691 | 202527


Track 1

Filename C:\EM archive\Tangerine Dream - Sorcerer (Remastered)\01 - Main Title.wav

Pre-gap length 0:00:02.00

Peak level 99.4 %
Extraction speed 4.5 X
Track quality 100.0 %
Test CRC 0207CF92
Copy CRC 0207CF92
Accurately ripped (confidence 20) [CCB28EE4] (AR v2)
Copy OK

Track 2

Filename C:\EM archive\Tangerine Dream - Sorcerer (Remastered)\02 - Search.wav

Pre-gap length 0:00:03.32

Peak level 99.4 %
Extraction speed 4.6 X
Track quality 100.0 %
Test CRC 32568535
Copy CRC 32568535
Accurately ripped (confidence 20) [A8C69B05] (AR v2)
Copy OK

Track 3

Filename C:\EM archive\Tangerine Dream - Sorcerer (Remastered)\03 - The Call.wav

Pre-gap length 0:00:02.42

Peak level 56.0 %
Extraction speed 4.5 X
Track quality 100.0 %
Test CRC A27CEC3D
Copy CRC A27CEC3D
Accurately ripped (confidence 20) [35CAA6F5] (AR v2)
Copy OK

Track 4

Filename C:\EM archive\Tangerine Dream - Sorcerer (Remastered)\04 - Creation.wav

Pre-gap length 0:00:02.14

Peak level 99.4 %
Extraction speed 5.1 X
Track quality 100.0 %
Test CRC 60D70C9B
Copy CRC 60D70C9B
Accurately ripped (confidence 20) [7C52E69A] (AR v2)
Copy OK

Track 5

Filename C:\EM archive\Tangerine Dream - Sorcerer (Remastered)\05 - Vengeance.wav

Pre-gap length 0:00:02.48

Peak level 99.4 %
Extraction speed 6.0 X
Track quality 100.0 %
Test CRC 24930BD5
Copy CRC 24930BD5
Accurately ripped (confidence 20) [5C1D8D37] (AR v2)
Copy OK

Track 6

Filename C:\EM archive\Tangerine Dream - Sorcerer (Remastered)\06 - The Journey.wav

Pre-gap length 0:00:02.61

Peak level 61.7 %
Extraction speed 3.7 X
Track quality 99.9 %
Test CRC 15F56618
Copy CRC 15F56618
Accurately ripped (confidence 20) [A5B24521] (AR v2)
Copy OK

Track 7

Filename C:\EM archive\Tangerine Dream - Sorcerer (Remastered)\07 - Grind.wav

Pre-gap length 0:00:02.39

Peak level 99.4 %
Extraction speed 5.9 X
Track quality 100.0 %
Test CRC 08A1C26D
Copy CRC 08A1C26D
Accurately ripped (confidence 20) [D122DA67] (AR v2)
Copy OK

Track 8

Filename C:\EM archive\Tangerine Dream - Sorcerer (Remastered)\08 - Rain Forest.wav

Pre-gap length 0:00:02.43

Peak level 99.4 %
Extraction speed 6.0 X
Track quality 100.0 %
Test CRC 020BFF85
Copy CRC 020BFF85
Accurately ripped (confidence 20) [516F2F26] (AR v2)
Copy OK

Track 9

Filename C:\EM archive\Tangerine Dream - Sorcerer (Remastered)\09 - Abyss.wav

Pre-gap length 0:00:02.53

Peak level 99.4 %
Extraction speed 7.2 X
Track quality 100.0 %
Test CRC F4B701A1
Copy CRC F4B701A1
Accurately ripped (confidence 20) [2A76954F] (AR v2)
Copy OK

Track 10

Filename C:\EM archive\Tangerine Dream - Sorcerer (Remastered)\10 - The Mountain Road.wav

Pre-gap length 0:00:01.63

Peak level 99.4 %
Extraction speed 6.2 X
Track quality 100.0 %
Test CRC ACF2E2BD
Copy CRC ACF2E2BD
Accurately ripped (confidence 20) [7B35D79E] (AR v2)
Copy OK

Track 11

Filename C:\EM archive\Tangerine Dream - Sorcerer (Remastered)\11 - Impressions Of Sorcerer.wav

Pre-gap length 0:00:02.17

Peak level 99.4 %
Extraction speed 5.8 X
Track quality 99.9 %
Test CRC C297752C
Copy CRC C297752C
Accurately ripped (confidence 20) [3840262A] (AR v2)
Copy OK

Track 12

Filename C:\EM archive\Tangerine Dream - Sorcerer (Remastered)\12 - Betrayal (Sorcerer Theme).wav

Pre-gap length 0:00:02.39

Peak level 99.4 %
Extraction speed 7.4 X
Track quality 100.0 %
Test CRC 44F67BBA
Copy CRC 44F67BBA
Accurately ripped (confidence 20) [79B42DEA] (AR v2)
Copy OK


All tracks accurately ripped

No errors occurred

End of status report

–– CUETools DB Plugin V2.1.6

[CTDB TOCID: Dw8t0AGG2je9g2kzyFp0nIF2zXQ-] found
Submit result: already submitted
Track | CTDB Status
1 | (51/51) Accurately ripped
2 | (51/51) Accurately ripped
3 | (51/51) Accurately ripped
4 | (51/51) Accurately ripped
5 | (50/51) Accurately ripped
6 | (50/51) Accurately ripped
7 | (51/51) Accurately ripped
8 | (50/51) Accurately ripped
9 | (51/51) Accurately ripped
10 | (51/51) Accurately ripped
11 | (51/51) Accurately ripped
12 | (51/51) Accurately ripped


==== Log checksum 74DF5EB7AB483362D91CF2FCEB13D0546E3D1CB8979113AB1A06F2684B4EE32B ====

[CUETools log; Date: 23.11.2019 14:30:38; Version: 2.1.4]
[CTDB TOCID: Dw8t0AGG2je9g2kzyFp0nIF2zXQ-] found.
Track | CTDB Status
1 | (51/51) Accurately ripped
2 | (51/51) Accurately ripped
3 | (51/51) Accurately ripped
4 | (51/51) Accurately ripped
5 | (50/51) Accurately ripped
6 | (50/51) Accurately ripped
7 | (51/51) Accurately ripped
8 | (50/51) Accurately ripped
9 | (51/51) Accurately ripped
10 | (51/51) Accurately ripped
11 | (51/51) Accurately ripped
12 | (51/51) Accurately ripped
[AccurateRip ID: 0014b53d-00bf62b3-9e0a8c0c] found.
Track [ CRC | V2 ] Status
01 [39293e61|ccb28ee4] (00+20/20) Accurately ripped
02 [6df56afb|a8c69b05] (00+20/20) Accurately ripped
03 [fd9d79fe|35caa6f5] (00+20/20) Accurately ripped
04 [45d114c5|7c52e69a] (00+20/20) Accurately ripped
05 [54195bdd|5c1d8d37] (00+20/20) Accurately ripped
06 [3878c7cc|a5b24521] (00+20/20) Accurately ripped
07 [85cee962|d122da67] (00+20/20) Accurately ripped
08 [249565ac|516f2f26] (00+20/20) Accurately ripped
09 [d2d43b43|2a76954f] (00+20/20) Accurately ripped
10 [71d7ce32|7b35d79e] (00+20/20) Accurately ripped
11 [396dbc0c|3840262a] (00+20/20) Accurately ripped
12 [a5f5c7ce|79b42dea] (00+20/20) Accurately ripped

Track Peak [ CRC32 ] [W/O NULL] [ LOG ]
– 99,4 [F9895A11] [B268330E]
01 99,4 [4DB922A6] [DD1C84AC] CRC32
02 99,4 [E845FAC7] [D2E32C75] CRC32
03 56,0 [BCCB8179] [56439BA6] CRC32
04 99,4 [1D04049A] [2C0C0B1B] CRC32
05 99,4 [BFFACE97] [5E696EB4] CRC32
06 61,7 [7356BE00] [BFA742FB] CRC32
07 99,4 [BC7ED21C] [E7A48A99] CRC32
08 99,4 [1F88C6B8] [07499B4D] CRC32
09 99,4 [37EAB1B9] [90EB33D2] CRC32
10 99,4 [AAB63AB0] [C6CAF790] CRC32
11 99,4 [40852859] [B6178246] CRC32
12 99,4 [FAC82328] [358245A1] CRC32

Thanks to rodster 10

See also:
Tangerine Dream - The Electronic Journey (2010) [10CD Box Set]
Tangerine Dream - The Dream Roots Collection [5CD Box Set] (1996)
Tangerine Dream - Electronic Meditation (1970) [Reissue 1996]
Tangerine Dream - Zeit (1972) [Reissue 1996]
Tangerine Dream - Phaedra (1974) [Definitive Edition 1995]
Tangerine Dream - Ricochet (1975) [Definitive Edition 1995]
Tangerine Dream - Stratosfear (1976) [Definitive Edition 1995]
Tangerine Dream - Force Majeure (1979) [Reissue 1995]
Tangerine Dream - Pergamon (1980) [Reissue 1996]
Tangerine Dream - White Eagle (1982) [Reissue 1995]
Tangerine Dream - Logos Live (1982) [Definitive Edition 1995]
Tangerine Dream - Firestarter ...ion Picture Soundtrack] (1984)
Tangerine Dream - Legend (OST) (1986) [Reissue 1995]
Tangerine Dream - Tyger (1987) [Reissue 1996]
Tangerine Dream - Optical Race (1988)
Tangerine Dream - Live Miles (1988) [Reissue 2003]
Tangerine Dream - Lily On The Beach (1989)
Tangerine Dream - Melrose (1990)
Tangerine Dream - Dead Solid Perfect (OST) (1990)
Tangerine Dream - The Park Is Mine (OST) (1991)
Tangerine Dream - Deadly Care (OST) (1992)
Tangerine Dream - Quinoa (1992) [Reissue 2009]
Tangerine Dream - Catch Me If You Can (OST) (1994)
Tangerine Dream - Tyranny Of Beauty (1995)
Tangerine Dream - Goblins' Club (1996)
Tangerine Dream - Zoning (OST) (1996)
Tangerine Dream - The Analogue Space Years 1969-1973 (1998)
Tangerine Dream - The Hollywood Years Vol. 1 (1998)
Tangerine Dream - The Hollywood Years Vol. 2 (1998)
Tangerine Dream - Antique Dreams (2000)
Tangerine Dream - Soundmill Navigator (2000)
Tangerine Dream - The Bootleg Box Set Vol. 1 [7CD] (2003)
Tangerine Dream - Purgatorio (2004)
Tangerine Dream - Arizona Live '92 (2004) [Reissue 2009]
Tangerine Dream - Cleveland - June 24th 1986 (2005)
Tangerine Dream - Blue Dawn (2006)
Tangerine Dream - The Essential Tangerine Dream (2006)
Tangerine Dream - Plays Tangerine Dream (2006)
Tangerine Dream - Views From A Red Train (2008)
Tangerine Dream - Booster (2008)
Tangerine Dream - Booster Vol. 2 (2008)
Tangerine Dream - The Antholog... Space Years Volume One (2008)
Tangerine Dream - DM V (Dream Mixes V) (2010)
Tangerine Dream - The London Eye Concert (2010)
Tangerine Dream - Edgar Allan Poe's The Island Of The Fay (2011)
Tangerine Dream - The Virgin Years 1974-1978 [3CD Box Set] (2011)
Tangerine Dream - The Official...ies Vol.1 [4CD Box Set] (2015)
Edgar Froese - 2 Albums (1974-1995)
Edgar Froese - Ages (1978) [Reissue 1997]
Edgar Froese - Pinnacles (1983)