Subcategories

Tangerine Dream - Springtime In Nagasaki (2007)

Posted By: gribovar
Tangerine Dream - Springtime In Nagasaki (2007)

Tangerine Dream - Springtime In Nagasaki (2007)
EAC Rip | APE (image+.cue+log) - 337 MB | MP3 CBR 320 kbps (LAME 3.93) - 132 MB | Covers includes
Genre: Progressive Electronic | RAR 3% Rec. | Label: Eastgate Music (Eastgate 014 CD)

"Springtime in Nagasaki" is the opening chapter of Tangerine Dream's five-CD project entitled "The Five Atomic Seasons". which were commissioned by a Japanese survivor of the 1945 dropping of the first atomic bomb. The six tracks which feature on this release emerge from two larger works - ‘Navel Of Light’ and ‘Persistence Of Memory,’ which are both divided into separate parts.
Tracklist:
01. Navel Of Light, Part 1
02. Navel Of Light, Part 2
03. Navel Of Light, Part 3
04. Persistence Of Memory, Part 1
05. Persistence Of Memory, Part 2
06. Persistence Of Memory, Part 3

Total time: 54:04

Exact Audio Copy V0.99 prebeta 5 from 4. May 2009

EAC extraction logfile from 7. February 2010, 2:12

Tangerine Dream / Springtime In Nagasaki

Used drive : ASUS DRW-1814BL Adapter: 0 ID: 0

Read mode : Secure
Utilize accurate stream : Yes
Defeat audio cache : Yes
Make use of C2 pointers : No

Read offset correction : 6
Overread into Lead-In and Lead-Out : No
Fill up missing offset samples with silence : Yes
Delete leading and trailing silent blocks : No
Null samples used in CRC calculations : Yes
Used interface : Native Win32 interface for Win NT & 2000

Used output format : Internal WAV Routines
Sample format : 44.100 Hz; 16 Bit; Stereo


TOC of the extracted CD

Track | Start | Length | Start sector | End sector
––––––––––––––––––––––––––––-
1 | 0:00.00 | 8:02.59 | 0 | 36208
2 | 8:02.59 | 14:44.24 | 36209 | 102532
3 | 22:47.08 | 7:42.28 | 102533 | 137210
4 | 30:29.36 | 6:32.34 | 137211 | 166644
5 | 37:01.70 | 13:11.45 | 166645 | 226014
6 | 50:13.40 | 3:50.39 | 226015 | 243303


Range status and errors

Selected range

Filename D:\EAC\Tangerine Dream - Springtime In Nagasaki.wav

Peak level 97.7 %
Range quality 100.0 %
Test CRC DFFAF04E
Copy CRC DFFAF04E
Copy OK

No errors occurred


AccurateRip summary

Track 1 accurately ripped (confidence 5) [F4077A1B]
Track 2 accurately ripped (confidence 4) [ED7504E8]
Track 3 accurately ripped (confidence 5) [AF93C72B]
Track 4 accurately ripped (confidence 5) [6BAE4D2D]
Track 5 accurately ripped (confidence 5) [CE395EE9]
Track 6 accurately ripped (confidence 5) [F89BB1C6]

All tracks accurately ripped

End of status report

Thanks to original releaser