Tags
Language
Tags

Tangerine Dream - Stratosfear (1976) [Definitive Edition 1995] (Repost)

Posted By: gribovar
Tangerine Dream - Stratosfear (1976) [Definitive Edition 1995] (Repost)

Tangerine Dream - Stratosfear (1976) [Definitive Edition 1995]
EAC Rip | WavPack (image+.cue+log) - 151 MB | MP3 CBR 320 kbps (LAME 3.93) - 83 MB | Covers - 61 MB
Genre: Progressive Electronic, Berlin School | RAR 3% Rec. | Label: Virgin Records (7243 8 40065 25)

Stratosfear, the last Tangerine Dream album by the great Baumann/Franke/Froese threesome, shows the group's desire to advance past their stellar recent material and stake out a new musical direction while others were still attempting to come to grips with Phaedra and Rubycon. The album accomplishes its mission with the addition of guitar (six- and 12-string), grand piano, harpsichord, and mouth organ to the usual battery of moogs, Mellotrons, and e-pianos. The organic instruments take more of a textural role, embellishing the effects instead of working their own melodic conventions. Stratosfear is also the beginning of a more evocative approach for Tangerine Dream. Check the faraway harmonica sounds and assortment of synth-bubbles on "3 AM at the Border of the Marsh From Okefenokee" or the somber chords and choral presence of "The Big Sleep in Search of Hades." The title track opener is the highlight though, beginning with a statuesque synthesizer progression before unveiling an increasingly hypnotic line of trance.
Tracklist:
01. Stratosfear
02. The Big Sleep In Search Of Hades
03. 3am At The Border Of The Marsh From Okefenokee
04. Invisible Limits

Total time: 35:20

Exact Audio Copy V0.99 prebeta 3 from 28. July 2007

EAC extraction logfile from 10. November 2008, 16:42

Tangerine Dream / Stratosfear

Used drive : PIONEER DVD-RW DVR-111 Adapter: 1 ID: 0

Read mode : Secure
Utilize accurate stream : Yes
Defeat audio cache : Yes
Make use of C2 pointers : No

Read offset correction : 48
Overread into Lead-In and Lead-Out : No
Fill up missing offset samples with silence : Yes
Delete leading and trailing silent blocks : No
Null samples used in CRC calculations : Yes
Used interface : Installed external ASPI interface

Used output format : User Defined Encoder
Selected bitrate : 1024 kBit/s
Quality : High
Add ID3 tag : No
Command line compressor : C:\Program Files\Exact Audio Copy1\wavpack.exe
Additional command line options : -hmx -w "Year=%y" -w "Genre=%m" %s %d


TOC of the extracted CD

Track | Start | Length | Start sector | End sector
––––––––––––––––––––––––––––-
1 | 0:00.00 | 10:37.05 | 0 | 47779
2 | 10:37.05 | 4:28.60 | 47780 | 67939
3 | 15:05.65 | 8:49.23 | 67940 | 107637
4 | 23:55.13 | 11:24.72 | 107638 | 159009


Range status and errors

Selected range

Filename F:\Muz\Tangerine Dream - Stratosfear (1976)\Tangerine Dream - Stratosfear.wav

Peak level 97.3 %
Range quality 100.0 %
Test CRC A0D62356
Copy CRC A0D62356
Copy OK

No errors occurred


AccurateRip summary

Track 1 accurately ripped (confidence 16) [510116BF]
Track 2 accurately ripped (confidence 16) [B985BE83]
Track 3 accurately ripped (confidence 16) [D5CA1596]
Track 4 accurately ripped (confidence 14) [4CE51461]

All tracks accurately ripped

End of status report

[CUETools log; Date: 19.11.2016 0:48:23; Version: 2.1.4]
[CTDB TOCID: X.YXkw.EW6oUlGOp.izbhSlEwuY-] found.
Track | CTDB Status
1 | (223/227) Accurately ripped
2 | (225/227) Accurately ripped
3 | (221/227) Accurately ripped
4 | (221/227) Accurately ripped, or (2/227) differs in 379 samples @11:24:59-11:24:60
[AccurateRip ID: 0005d5a0-001744f7-33084804] found.
Track [ CRC | V2 ] Status
01 [510116bf|6aa2d82e] (063+055/278) Accurately ripped
02 [b985be83|c67c36e1] (063+055/277) Accurately ripped
03 [d5ca1596|5c70c3e3] (063+054/276) Accurately ripped
04 [4ce51461|ac417629] (063+053/274) Accurately ripped
Offsetted by -670:
01 [92540a0f] (019/278) Accurately ripped
02 [835f32af] (019/277) Accurately ripped
03 [c2a6c320] (019/276) Accurately ripped
04 [9a03a821] (019/274) Accurately ripped
Offsetted by 192:
01 [976b7a2f] (025/278) Accurately ripped
02 [86f89773] (024/277) Accurately ripped
03 [354fbc65] (024/276) Accurately ripped
04 [4b8a85ea] (024/274) Accurately ripped
Offsetted by -18:
01 [f54bd0d5] (000/278) No match (V2 was not tested)
02 [07642c01] (000/277) No match (V2 was not tested)
03 [e1c38589] (000/276) No match (V2 was not tested)
04 [175f41b4] (000/274) No match (V2 was not tested)
Offsetted by -6:
01 [6969eb49] (000/278) No match (V2 was not tested)
02 [7e463815] (000/277) No match (V2 was not tested)
03 [17c4dbd7] (000/276) No match (V2 was not tested)
04 [903a78ca] (000/274) No match (V2 was not tested)

Track Peak [ CRC32 ] [W/O NULL] [ LOG ]
– 97,3 [A0D62356] [1BF54F2E] CRC32
01 97,3 [32891341] [29ACC81D]
02 33,6 [3984F922] [C9DC2654]
03 96,5 [EC8AA4C3] [D9CB4A0A]
04 97,0 [9B763BEA] [76254842]

Thanks to the original releaser