Tags
Language
Tags

Tangerine Dream - Tangram (1980) (Repost)

Posted By: gribovar
Tangerine Dream - Tangram (1980) (Repost)

Tangerine Dream - Tangram (1980)
EAC Rip | APE (image+.cue+log) - 221 MB | MP3 CBR 320 kbps (LAME 3.93) - 95 MB | Covers - 18 MB
Genre: Electronic, Berlin School | RAR 3% Rec. | Label: Virgin (CDV 2147)

Tangram marked the beginning of a new musical direction for Tangerine Dream. It's closer to straight-ahead, melodic new age music and more tied to their soundtrack material. The first of the two side-long pieces progresses through several different passages that use gently brushed acoustic guitars as well as the requisite synthesizers. For new age fans, this is the first glimmering of Tangerine Dream's eventual direction during the '80s.

Tracklist:
01. Tangram Set 1
02. Tangram Set 2

Total time: 40:28

Exact Audio Copy V1.0 beta 1 from 15. November 2010

EAC extraction logfile from 13. July 2012, 20:13

Tangerine Dream / Tangram

Used drive : TEAC CD-W552E Adapter: 1 ID: 1

Read mode : Secure
Utilize accurate stream : Yes
Defeat audio cache : Yes
Make use of C2 pointers : No

Read offset correction : 6
Overread into Lead-In and Lead-Out : No
Fill up missing offset samples with silence : Yes
Delete leading and trailing silent blocks : No
Null samples used in CRC calculations : Yes
Used interface : Installed external ASPI interface

Used output format : Internal WAV Routines
Sample format : 44.100 Hz; 16 Bit; Stereo


TOC of the extracted CD

Track | Start | Length | Start sector | End sector
––––––––––––––––––––––––––––-
1 | 0:00.00 | 19:58.32 | 0 | 89881
2 | 19:58.32 | 20:29.55 | 89882 | 182111


Range status and errors

Selected range

Filename K:\Upload\Tangerine Dream - 1980 - Tangram (Virgin Records Ltd., CDV 2147)_Upload\Tangerine Dream - Tangram.wav

Peak level 100.0 %
Extraction speed 3.8 X
Range quality 99.9 %
Test CRC BA2DD3A6
Copy CRC BA2DD3A6
Copy OK

No errors occurred


AccurateRip summary

Track 1 accurately ripped (confidence 6) [63B54223]
Track 2 accurately ripped (confidence 6) [8D85345A]

All tracks accurately ripped

End of status report

==== Log checksum 69C1F0C48B586DD61E7A3C0539F6C4DC07E27AE248697309D9A3E279F33DE056 ====

[CUETools log; Date: 08.02.2021 13:22:27; Version: 2.1.4]
[CTDB TOCID: tMyBFiPw3ctSGTOavSJp7wxzWZQ-] found.
Track | CTDB Status
1 | (213/217) Accurately ripped
2 | (213/217) Accurately ripped, or (1/217) differs in 2352 samples @15:20:67-15:20:69
[AccurateRip ID: 0004267a-000b1455-05097c02] found.
Track [ CRC | V2 ] Status
01 [63b54223|54129c01] (027+038/160) Accurately ripped
02 [8d85345a|cc17e739] (024+038/158) Accurately ripped
Offsetted by -358:
01 [c58f7ff3] (019/160) Accurately ripped
02 [939cb368] (018/158) Accurately ripped
Offsetted by -270:
01 [6bb83eb3] (021/160) Accurately ripped
02 [df57ff70] (023/158) Accurately ripped

Track Peak [ CRC32 ] [W/O NULL] [ LOG ]
– 100,0 [BA2DD3A6] [CB4C4B06] CRC32
01 100,0 [492D48B7] [3753403A]
02 92,4 [83276362] [0B530569]

Thanks to technick

See also:
Tangerine Dream - The Electronic Journey (2010) [10CD Box Set]
Tangerine Dream - The Dream Roots Collection [5CD Box Set] (1996)
Tangerine Dream - Electronic Meditation (1970) [Reissue 1996]
Tangerine Dream - Alpha Centauri (1971) [Reissue 2011]
Tangerine Dream - Zeit (1972) [Reissue 1996]
Tangerine Dream - Atem (1973) [Reissue 2011]
Tangerine Dream - Phaedra (1974) [Original Edition]
Tangerine Dream - Phaedra (1974) [Definitive Edition 1995]
Tangerine Dream - Ricochet (1975) [Definitive Edition 1995]
Tangerine Dream - Stratosfear (1976) [Definitive Edition 1995]
Tangerine Dream - Sorcerer (OST) (1977) [Reissue 2011]
Tangerine Dream - Force Majeure (1979) [Reissue 1995]
Tangerine Dream - Pergamon (1980) [Reissue 1996]
Tangerine Dream - White Eagle (1982) [Reissue 1995]
Tangerine Dream - Logos Live (1982) [Definitive Edition 1995]
Tangerine Dream - Poland - The Warsaw Concert (1984) [Reissue 2011]
Tangerine Dream - Firestarter ...ion Picture Soundtrack] (1984)
Tangerine Dream - Legend (OST) (1986) [Reissue 1995]
Tangerine Dream - Tyger (1987) [Reissue 1996]
Tangerine Dream - Three O'Clock High [OST] (1987)
Tangerine Dream - Optical Race (1988)
Tangerine Dream - Live Miles (1988) [Reissue 2003]
Tangerine Dream - Lily On The Beach (1989)
Tangerine Dream - Melrose (1990)
Tangerine Dream - Dead Solid Perfect (OST) (1990)
Tangerine Dream - The Park Is Mine (OST) (1991)
Tangerine Dream - Deadly Care (OST) (1992)
Tangerine Dream - Quinoa (1992) [Reissue 2009]
Tangerine Dream - Catch Me If You Can (OST) (1994)
Tangerine Dream - Tyranny Of Beauty (1995)
Tangerine Dream - Goblins' Club (1996)
Tangerine Dream - Zoning (OST) (1996)
Tangerine Dream - The Analogue Space Years 1969-1973 (1998)
Tangerine Dream - The Hollywood Years Vol. 1 (1998)
Tangerine Dream - The Hollywood Years Vol. 2 (1998)
Tangerine Dream - Antique Dreams (2000)
Tangerine Dream - Soundmill Navigator (2000)
Tangerine Dream - The Bootleg Box Set Vol. 1 [7CD] (2003)
Tangerine Dream - Purgatorio (2004)
Tangerine Dream - Arizona Live '92 (2004) [Reissue 2009]
Tangerine Dream - Phaedra 2005 (2005) [Japanese Edition 2009]
Tangerine Dream - Cleveland - June 24th 1986 (2005)
Tangerine Dream - Blue Dawn (2006)
Tangerine Dream - The Essential Tangerine Dream (2006)
Tangerine Dream - Plays Tangerine Dream (2006)
Tangerine Dream - Views From A Red Train (2008)
Tangerine Dream - Booster (2008)
Tangerine Dream - Booster Vol. 2 (2008)
Tangerine Dream - The Antholog... Space Years Volume One (2008)
Tangerine Dream - Music For Sports: Cool Races (2009)
Tangerine Dream - Music For Sports: Power And Motion (2009)
Tangerine Dream - DM V (Dream Mixes V) (2010)
Tangerine Dream - The London Eye Concert (2010)
Tangerine Dream - The Virgin Years 1974-1978 [3CD Box Set] (2011)
Tangerine Dream - The Official...ies Vol.1 [4CD Box Set] (2015)
Tangerine Dream - Live At Coventry Cathedral 1975 (2007) [DVD]
Edgar Froese - 2 Albums (1974-1995)
Edgar Froese - Ages (1978) [Reissue 1997]
Edgar Froese - Pinnacles (1983)