Subcategories

Tangerine Dream - The Anthology Decades - The Space Years Volume One (2008)

Posted By: gribovar
Tangerine Dream - The Anthology Decades - The Space Years Volume One (2008)

Tangerine Dream - The Anthology Decades - The Space Years Volume One (2008)
EAC Rip | APE (image+.cue+log) - 454 MB | MP3 CBR 320 kbps (LAME 3.93) - 186 MB | Covers included
Genre: Progressive Electronic, Berlin School | RAR 3% Rec. | Label: Eastgate (026 CD)

The Anthology Decades is a compilation of older studio material which has been previously unreleased, though some of the tracks seem to be remixed ('tangentized') or alternate versions of some well-known material: Sunset In The Fifth System obviously bases on an excerpt from Alpha Centauri, Exit To Heaven is very similar to Edinburgh Castle, and Landing On 51 essentially overlays Astral Voyager with some new melody lines. On the other hand, official information from the Tangerine Dream Forum state: "Speculations on so-called 'tangentized' material or the use of some 'overwashed' production methods are completely false. They are compositions out of the 70ies and 80s which have been recorded for the first time or have been taken from Edgar's personal sound library." So the listener may make up his own mind… In any way, the album contains more than enough unheard music to be of interest to any TD fan, especially to those who prefer TD's style of the eighties, as most tracks seem to origin from that time.

Tracklist:
01. Boat To China
02. Landing On 51
03. Exit To Heaven
04. Silver Pendulum
05. Shy Shila
06. Sunset In The Fifth System
07. Borealis
08. Run To Vegas
09. The Seventh Folder
10. Pink Ashes
11. The Burning Hole
12. Huckebee's Dream

Total time: 01:18:34

Exact Audio Copy V0.99 prebeta 5 from 4. May 2009

EAC extraction logfile from 22. January 2010, 17:41

Tangerine Dream / The Anthology Decades

Used drive : ASUS DRW-2014S1 Adapter: 0 ID: 0

Read mode : Secure
Utilize accurate stream : Yes
Defeat audio cache : Yes
Make use of C2 pointers : No

Read offset correction : 6
Overread into Lead-In and Lead-Out : No
Fill up missing offset samples with silence : Yes
Delete leading and trailing silent blocks : No
Null samples used in CRC calculations : Yes
Used interface : Native Win32 interface for Win NT & 2000

Used output format : Internal WAV Routines
Sample format : 44.100 Hz; 16 Bit; Stereo


TOC of the extracted CD

Track | Start | Length | Start sector | End sector
––––––––––––––––––––––––––––-
1 | 0:00.00 | 7:29.51 | 0 | 33725
2 | 7:29.51 | 7:57.06 | 33726 | 69506
3 | 15:26.57 | 4:46.38 | 69507 | 90994
4 | 20:13.20 | 4:58.27 | 90995 | 113371
5 | 25:11.47 | 5:23.47 | 113372 | 137643
6 | 30:35.19 | 6:41.21 | 137644 | 167739
7 | 37:16.40 | 4:48.33 | 167740 | 189372
8 | 42:04.73 | 10:12.14 | 189373 | 235286
9 | 52:17.12 | 7:40.52 | 235287 | 269838
10 | 59:57.64 | 4:11.58 | 269839 | 288721
11 | 64:09.47 | 3:39.16 | 288722 | 305162
12 | 67:48.63 | 10:45.32 | 305163 | 353569


Range status and errors

Selected range

Filename D:\EAC\Tangerine Dream - The Anthology Decades.wav

Peak level 98.8 %
Range quality 100.0 %
Test CRC 18060315
Copy CRC 18060315
Copy OK

No errors occurred


AccurateRip summary

Track 1 accurately ripped (confidence 3) [A7B09193]
Track 2 accurately ripped (confidence 3) [57CF8B82]
Track 3 accurately ripped (confidence 3) [F0A0EBD2]
Track 4 accurately ripped (confidence 3) [0DFBA1E7]
Track 5 accurately ripped (confidence 3) [9FF3F7AF]
Track 6 accurately ripped (confidence 3) [2AA8268D]
Track 7 accurately ripped (confidence 3) [88B1AF31]
Track 8 accurately ripped (confidence 3) [C5C17DAC]
Track 9 accurately ripped (confidence 3) [25D30F7E]
Track 10 accurately ripped (confidence 3) [B6CEB397]
Track 11 accurately ripped (confidence 3) [740C6158]
Track 12 accurately ripped (confidence 3) [927F5ECE]

All tracks accurately ripped

End of status report

[CUETools log; Date: 19.10.2017 14:00:33; Version: 2.1.4]
[CTDB TOCID: _.KjLBqH2WAoZ.M3xVdPs9yCEio-] found.
Track | CTDB Status
1 | (6/6) Accurately ripped
2 | (6/6) Accurately ripped
3 | (6/6) Accurately ripped
4 | (6/6) Accurately ripped
5 | (6/6) Accurately ripped
6 | (6/6) Accurately ripped
7 | (6/6) Accurately ripped
8 | (6/6) Accurately ripped
9 | (6/6) Accurately ripped
10 | (6/6) Accurately ripped
11 | (6/6) Accurately ripped
12 | (6/6) Accurately ripped
[AccurateRip ID: 0022685a-0140025b-a9126a0c] found.
Track [ CRC | V2 ] Status
01 [a7b09193|6336955a] (5+0/5) Accurately ripped
02 [57cf8b82|ba938862] (5+0/5) Accurately ripped
03 [f0a0ebd2|55bf7e08] (5+0/5) Accurately ripped
04 [0dfba1e7|f3ba98f2] (5+0/5) Accurately ripped
05 [9ff3f7af|f63bcfcc] (5+0/5) Accurately ripped
06 [2aa8268d|364c7d8a] (5+0/5) Accurately ripped
07 [88b1af31|9d48c38a] (5+0/5) Accurately ripped
08 [c5c17dac|fc89f961] (5+0/5) Accurately ripped
09 [25d30f7e|fa0cbaf4] (5+0/5) Accurately ripped
10 [b6ceb397|2b50432a] (5+0/5) Accurately ripped
11 [740c6158|e746a314] (5+0/5) Accurately ripped
12 [927f5ece|83be1a45] (5+0/5) Accurately ripped

Track Peak [ CRC32 ] [W/O NULL] [ LOG ]
– 98,8 [18060315] [75270949] CRC32
01 98,2 [35E73BA4] [3E4D5580]
02 97,0 [B57C64FE] [99C73E04]
03 98,8 [469D6D0B] [8C55B863]
04 98,8 [DEF183BD] [C24585F8]
05 98,8 [66471866] [4A6BA255]
06 98,8 [4F5C8138] [3F7941F2]
07 98,8 [39E7EE2E] [E401CBFF]
08 98,8 [BBEE416B] [F000F43D]
09 98,8 [39F45351] [2A53AC4B]
10 98,8 [4F53DB54] [D593BBAF]
11 98,8 [3D529933] [543ABF45]
12 98,5 [C5B68ECB] [FB19EE06]

Thanks to the original releaser

See also:

Tangerine Dream - The Electronic Journey (2010) [10CD Box Set]
Tangerine Dream - The Dream Roots Collection [5CD Box Set] (1996)
Tangerine Dream - 2 Studio Albums (1971-1973) [Reissue 2011]
Tangerine Dream - Phaedra (1974) [Original Edition]
Tangerine Dream - Phaedra (1974) [Definitive Edition 1995]
Tangerine Dream - Ricochet (1975) [Definitive Edition 1995]
Tangerine Dream - Stratosfear (1976) [Definitive Edition 1995]
Tangerine Dream - Encore (1977) [Original Edition]
Tangerine Dream - Wavelength (1983)
Tangerine Dream - Poland - The Warsaw Concert (1984) [Reissue 2011]
Tangerine Dream - Green Desert (1986) [Reissue 2003]
Tangerine Dream - Underwater Sunlight (1986)
Tangerine Dream - Melrose (1990)
Tangerine Dream - Dead Solid Perfect (OST) (1990)
Tangerine Dream - The Story Of Tangerine Dream (1992)
Tangerine Dream - Quinoa (1992) [Reissue 2009]
Tangerine Dream - Turn of the Tides (1994)
Tangerine Dream - Tyranny Of Beauty (1995)
Tangerine Dream - Antique Dreams (2000)
Tangerine Dream - The Bootleg Box Set Vol. 1 [7CD] (2003)
Tangerine Dream - Arizona Live '92 (2004) [Reissue 2009]
Tangerine Dream - Blue Dawn (2006)
Tangerine Dream - The Essential Tangerine Dream (2006)
Tangerine Dream - The London Eye Concert (2010)
Tangerine Dream - Edgar Allan Poe's The Island Of The Fay (2011)
Tangerine Dream - The Virgin Years 1974-1978 [3CD Box Set] (2011)
Tangerine Dream - The Official Bootleg Series Vol.1 [4CD Box Set] (2015)
Tangerine Dream - Live At Coventry Cathedral 1975 (2007) [DVD]
Tangerine Dream - Madcap's Flaming Duty (2007) [DVD]
Tangerine Dream - 35th Phaedra Anniversary Concert (2007) [2DVD]
Edgar Froese - 2 Albums (1974-1995)
Edgar Froese - Ages (1978) [Reissue 1997]
Edgar Froese - Pinnacles (1983)