Tags
Language
Tags

Tangerine Dream - The Dream Roots Collection [5CD Box Set] (1996)

Posted By: gribovar
Tangerine Dream - The Dream Roots Collection [5CD Box Set] (1996)

Tangerine Dream - The Dream Roots Collection [5CD Box Set] (1996)
EAC Rip | FLAC (tracks+.cue+log) - 1,68 GB | MP3 CBR 320 kbps (LAME 3.93) - 648 MB | Box Covers - 40 MB
Genre: Electronic, Berlin School/New Age | RAR 3% Rec. | Label: Essential (ESFCD420)

The Dream Roots Collection is a five-disc retrospective of Tangerine Dream's career, including one disc of previously unreleased material. All of the material on the collection has been remixed and reworked by Edgar Froese and his son Jerome, and while these remixes might not be historically accurate, they nevertheless retain the essence of the original versions, making the box an intriguing journey through the group's past. While the set is too extensive for casual listeners, hardcore fans will find the new mixes and rarities fascinating, making the set a worthwhile addition to their collection.

Tangerine Dream - The Dream Roots Collection [5CD Box Set] (1996)

CD 1
EAC Rip | FLAC (tracks+.cue+log) - 302 MB | MP3 CBR 320 kbps (LAME 3.93) - 128 MB | Covers (3 MB) included
Genre: Electronic, Berlin School/New Age | RAR 3% Rec. | Label: Essential (ESFCD420/1)

Tracklist:
01. Birth Of Liquid Plejades (1995 Remix)
02. Journey Through A Burning Brain (1995 Remix)
03. Alpha Centauri (1995 Remix)
04. Zeit (1995 Remix)
05. Wahn (1995 Remix)
06. Fauni-Gena (1995 Remix)
07. Green Desert (1995 Remix)
08. White Clouds (Excerpt)
09. Astral Voyager (Excerpt)
10. Origin Of Supernatural Probabilities (1996 Remix)
11. Indian Summer (Excerpt)

Total time: 53:16

Exact Audio Copy V0.99 prebeta 5 from 4. May 2009

EAC extraction logfile from 4. March 2010, 9:58

Tangerine Dream / The Dream Roots Collection: CD One

Used drive : HL-DT-STDVDRAM GT20L Adapter: 3 ID: 0

Read mode : Secure
Utilize accurate stream : Yes
Defeat audio cache : Yes
Make use of C2 pointers : No

Read offset correction : 667
Overread into Lead-In and Lead-Out : No
Fill up missing offset samples with silence : Yes
Delete leading and trailing silent blocks : No
Null samples used in CRC calculations : Yes
Used interface : Native Win32 interface for Win NT & 2000
Gap handling : Appended to previous track

Used output format : User Defined Encoder
Selected bitrate : 768 kBit/s
Quality : High
Add ID3 tag : No
Command line compressor : C:\Program Files\FLAC\flac.exe
Additional command line options : -V -8 -T "artist=%a" -T "title=%t" -T "album=%g" -T "date=%y" -T "tracknumber=%n" -T "genre=%m" %s


TOC of the extracted CD

Track | Start | Length | Start sector | End sector
––––––––––––––––––––––––––––-
1 | 0:00.00 | 4:48.47 | 0 | 21646
2 | 4:48.47 | 3:03.18 | 21647 | 35389
3 | 7:51.65 | 3:22.32 | 35390 | 50571
4 | 11:14.22 | 3:35.30 | 50572 | 66726
5 | 14:49.52 | 3:23.55 | 66727 | 82006
6 | 18:13.32 | 4:02.13 | 82007 | 100169
7 | 22:15.45 | 5:31.35 | 100170 | 125029
8 | 27:47.05 | 4:27.50 | 125030 | 145104
9 | 32:14.55 | 6:15.17 | 145105 | 173246
10 | 38:29.72 | 8:01.58 | 173247 | 209379
11 | 46:31.55 | 6:44.47 | 209380 | 239726


Track 1

Filename H:\flac\Tangerine Dream\Tangerine Dream - 1996 - The Dream Roots Collection\Tangerine Dream - 1996 - The Dream Roots Collection- CD One\01 - Birth Of Liquid Plejades.wav

Pre-gap length 0:00:02.00

Peak level 99.9 %
Track quality 100.0 %
Test CRC B513C040
Copy CRC B513C040
Accurately ripped (confidence 13) [D6B59405]
Copy OK

Track 2

Filename H:\flac\Tangerine Dream\Tangerine Dream - 1996 - The Dream Roots Collection\Tangerine Dream - 1996 - The Dream Roots Collection- CD One\02 - Journey Through A Burning Brain.wav

Pre-gap length 0:00:02.73

Peak level 99.7 %
Track quality 100.0 %
Test CRC 4194E71D
Copy CRC 4194E71D
Accurately ripped (confidence 13) [08732297]
Copy OK

Track 3

Filename H:\flac\Tangerine Dream\Tangerine Dream - 1996 - The Dream Roots Collection\Tangerine Dream - 1996 - The Dream Roots Collection- CD One\03 - Alpha Centauri.wav

Pre-gap length 0:00:02.73

Peak level 98.1 %
Track quality 100.0 %
Test CRC 2C361D5D
Copy CRC 2C361D5D
Accurately ripped (confidence 13) [F3B191A1]
Copy OK

Track 4

Filename H:\flac\Tangerine Dream\Tangerine Dream - 1996 - The Dream Roots Collection\Tangerine Dream - 1996 - The Dream Roots Collection- CD One\04 - Zeit.wav

Pre-gap length 0:00:02.73

Peak level 98.3 %
Track quality 100.0 %
Test CRC 52F06E64
Copy CRC 52F06E64
Accurately ripped (confidence 13) [DBBA87B8]
Copy OK

Track 5

Filename H:\flac\Tangerine Dream\Tangerine Dream - 1996 - The Dream Roots Collection\Tangerine Dream - 1996 - The Dream Roots Collection- CD One\05 - Wahn.wav

Pre-gap length 0:00:02.73

Peak level 98.1 %
Track quality 100.0 %
Test CRC 676543C2
Copy CRC 676543C2
Accurately ripped (confidence 13) [EA57E0AE]
Copy OK

Track 6

Filename H:\flac\Tangerine Dream\Tangerine Dream - 1996 - The Dream Roots Collection\Tangerine Dream - 1996 - The Dream Roots Collection- CD One\06 - Fauni-Gena.wav

Pre-gap length 0:00:02.73

Peak level 99.5 %
Track quality 100.0 %
Test CRC 5CDA8D12
Copy CRC 5CDA8D12
Accurately ripped (confidence 13) [7BBC8B11]
Copy OK

Track 7

Filename H:\flac\Tangerine Dream\Tangerine Dream - 1996 - The Dream Roots Collection\Tangerine Dream - 1996 - The Dream Roots Collection- CD One\07 - Green Desert.wav

Pre-gap length 0:00:02.73

Peak level 98.2 %
Track quality 100.0 %
Test CRC 73E9E807
Copy CRC 73E9E807
Accurately ripped (confidence 13) [9E935DA8]
Copy OK

Track 8

Filename H:\flac\Tangerine Dream\Tangerine Dream - 1996 - The Dream Roots Collection\Tangerine Dream - 1996 - The Dream Roots Collection- CD One\08 - White Clouds.wav

Pre-gap length 0:00:02.73

Peak level 98.0 %
Track quality 100.0 %
Test CRC 4B126A6B
Copy CRC 4B126A6B
Accurately ripped (confidence 13) [4987B1BD]
Copy OK

Track 9

Filename H:\flac\Tangerine Dream\Tangerine Dream - 1996 - The Dream Roots Collection\Tangerine Dream - 1996 - The Dream Roots Collection- CD One\09 - Astral Voyager.wav

Pre-gap length 0:00:02.73

Peak level 98.4 %
Track quality 99.9 %
Test CRC 833F89C0
Copy CRC 833F89C0
Accurately ripped (confidence 13) [43C269AB]
Copy OK

Track 10

Filename H:\flac\Tangerine Dream\Tangerine Dream - 1996 - The Dream Roots Collection\Tangerine Dream - 1996 - The Dream Roots Collection- CD One\10 - Origin Of Supernatural Probabilities.wav

Pre-gap length 0:00:02.73

Peak level 99.3 %
Track quality 100.0 %
Test CRC BD674481
Copy CRC BD674481
Accurately ripped (confidence 13) [DA070C48]
Copy OK

Track 11

Filename H:\flac\Tangerine Dream\Tangerine Dream - 1996 - The Dream Roots Collection\Tangerine Dream - 1996 - The Dream Roots Collection- CD One\11 - Indian Summer.wav

Pre-gap length 0:00:02.73

Peak level 98.0 %
Track quality 100.0 %
Test CRC 985CF75C
Copy CRC 985CF75C
Accurately ripped (confidence 13) [7D254D15]
Copy OK


All tracks accurately ripped

No errors occurred

End of status report

[CUETools log; Date: 26.05.2016 18:33:38; Version: 2.1.4]
[CTDB TOCID: QBeQzwNiUopKeMvGRRnpBIvK25I-] found.
Track | CTDB Status
1 | (15/15) Accurately ripped
2 | (15/15) Accurately ripped
3 | (15/15) Accurately ripped
4 | (15/15) Accurately ripped
5 | (15/15) Accurately ripped
6 | (15/15) Accurately ripped
7 | (15/15) Accurately ripped
8 | (15/15) Accurately ripped
9 | (15/15) Accurately ripped
10 | (15/15) Accurately ripped
11 | (15/15) Accurately ripped
[AccurateRip ID: 00130eea-00a9545b-a20c7c0b] found.
Track [ CRC | V2 ] Status
01 [d6b59405|45806335] (16+13/29) Accurately ripped
02 [08732297|a6f2bc6c] (16+13/29) Accurately ripped
03 [f3b191a1|234143e1] (16+13/29) Accurately ripped
04 [dbba87b8|5eca23ed] (16+13/29) Accurately ripped
05 [ea57e0ae|23f0c904] (16+13/29) Accurately ripped
06 [7bbc8b11|0080282b] (16+13/29) Accurately ripped
07 [9e935da8|fbfb7a0e] (16+13/29) Accurately ripped
08 [4987b1bd|76c3c31f] (16+13/29) Accurately ripped
09 [43c269ab|2b18f930] (16+13/29) Accurately ripped
10 [da070c48|f2c4feac] (16+13/29) Accurately ripped
11 [7d254d15|f703ef2c] (16+13/29) Accurately ripped

Track Peak [ CRC32 ] [W/O NULL] [ LOG ]
– 99,9 [088BF894] [F6F659F7]
01 99,9 [B513C040] [077C0ED2] CRC32
02 99,7 [4194E71D] [DDF18167] CRC32
03 98,1 [2C361D5D] [4A50CBFD] CRC32
04 98,3 [52F06E64] [74D67477] CRC32
05 98,1 [676543C2] [D682D67D] CRC32
06 99,5 [5CDA8D12] [1E6BE4A3] CRC32
07 98,2 [73E9E807] [D4B795FC] CRC32
08 98,0 [4B126A6B] [0A0FC2BF] CRC32
09 98,4 [833F89C0] [69919DEB] CRC32
10 99,3 [BD674481] [314F8D54] CRC32
11 98,0 [985CF75C] [32E0151A] CRC32

Tangerine Dream - The Dream Roots Collection [5CD Box Set] (1996)

CD 2
EAC Rip | FLAC (tracks+.cue+log) - 357 MB | MP3 CBR 320 kbps (LAME 3.93) - 125 MB | Covers (3 MB) included
Genre: Electronic, Berlin School/New Age | RAR 3% Rec. | Label: Essential (ESFCD420/2)

Tracklist:
01. Ride On A Ray (Excerpt)
02. Livemiles (Albuquerque Concert) (Excerpt)
03. Tangent (Poland Concert) (1996 Remix)
04. Smile (Excerpt)
05. Livemiles (Berlin Concert Pt. 1) (Excerpt Of Section "Velvet Autumn")
06. Vigour (Tyger Bonus)
07. Central Park (1996 Remix)
08. Zen Garden (1996 Remix)
09. Livemiles (Berlin Concert Pt. 2) (Excerpt Of Section "Caspian Sea")

Total time: 51:43

Exact Audio Copy V0.99 prebeta 5 from 4. May 2009

EAC extraction logfile from 4. March 2010, 10:33

Tangerine Dream / The Dream Roots Collection: CD Two

Used drive : HL-DT-STDVDRAM GT20L Adapter: 3 ID: 0

Read mode : Secure
Utilize accurate stream : Yes
Defeat audio cache : Yes
Make use of C2 pointers : No

Read offset correction : 667
Overread into Lead-In and Lead-Out : No
Fill up missing offset samples with silence : Yes
Delete leading and trailing silent blocks : No
Null samples used in CRC calculations : Yes
Used interface : Native Win32 interface for Win NT & 2000
Gap handling : Appended to previous track

Used output format : User Defined Encoder
Selected bitrate : 768 kBit/s
Quality : High
Add ID3 tag : No
Command line compressor : C:\Program Files\FLAC\flac.exe
Additional command line options : -V -8 -T "artist=%a" -T "title=%t" -T "album=%g" -T "date=%y" -T "tracknumber=%n" -T "genre=%m" %s


TOC of the extracted CD

Track | Start | Length | Start sector | End sector
––––––––––––––––––––––––––––-
1 | 0:00.00 | 5:19.02 | 0 | 23926
2 | 5:19.02 | 7:59.00 | 23927 | 59851
3 | 13:18.02 | 5:23.20 | 59852 | 84096
4 | 18:41.22 | 5:45.13 | 84097 | 109984
5 | 24:26.35 | 7:02.47 | 109985 | 141681
6 | 31:29.07 | 4:38.55 | 141682 | 162586
7 | 36:07.62 | 3:39.08 | 162587 | 179019
8 | 39:46.70 | 4:46.37 | 179020 | 200506
9 | 44:33.32 | 7:10.08 | 200507 | 232764


Track 1

Filename H:\flac\Tangerine Dream\Tangerine Dream - 1996 - The Dream Roots Collection\Tangerine Dream - 1996 - The Dream Roots Collection- CD Two\01 - Ride On A Ray.wav

Pre-gap length 0:00:02.00

Peak level 98.4 %
Track quality 100.0 %
Test CRC 41301F4F
Copy CRC 41301F4F
Accurately ripped (confidence 13) [EF418B4B]
Copy OK

Track 2

Filename H:\flac\Tangerine Dream\Tangerine Dream - 1996 - The Dream Roots Collection\Tangerine Dream - 1996 - The Dream Roots Collection- CD Two\02 - Livemiles (Albuquerque Concert).wav

Pre-gap length 0:00:02.73

Peak level 99.5 %
Track quality 100.0 %
Test CRC 367D9FEC
Copy CRC 367D9FEC
Accurately ripped (confidence 13) [B0F5163A]
Copy OK

Track 3

Filename H:\flac\Tangerine Dream\Tangerine Dream - 1996 - The Dream Roots Collection\Tangerine Dream - 1996 - The Dream Roots Collection- CD Two\03 - Tangent (Poland Concert).wav

Pre-gap length 0:00:02.73

Peak level 98.1 %
Track quality 100.0 %
Test CRC 32FFAD28
Copy CRC 32FFAD28
Accurately ripped (confidence 13) [F7E01E54]
Copy OK

Track 4

Filename H:\flac\Tangerine Dream\Tangerine Dream - 1996 - The Dream Roots Collection\Tangerine Dream - 1996 - The Dream Roots Collection- CD Two\04 - Smile.wav

Pre-gap length 0:00:02.74

Peak level 99.0 %
Track quality 100.0 %
Test CRC 9C5178CB
Copy CRC 9C5178CB
Accurately ripped (confidence 13) [3D14466A]
Copy OK

Track 5

Filename H:\flac\Tangerine Dream\Tangerine Dream - 1996 - The Dream Roots Collection\Tangerine Dream - 1996 - The Dream Roots Collection- CD Two\05 - Livemiles (Berlin Concert (1)).wav

Pre-gap length 0:00:02.73

Peak level 98.1 %
Track quality 100.0 %
Test CRC C3538078
Copy CRC C3538078
Accurately ripped (confidence 13) [69589276]
Copy OK

Track 6

Filename H:\flac\Tangerine Dream\Tangerine Dream - 1996 - The Dream Roots Collection\Tangerine Dream - 1996 - The Dream Roots Collection- CD Two\06 - Vigour (Tyger Bonus).wav

Pre-gap length 0:00:02.73

Peak level 98.1 %
Track quality 100.0 %
Test CRC 82374972
Copy CRC 82374972
Accurately ripped (confidence 13) [B9FF35CA]
Copy OK

Track 7

Filename H:\flac\Tangerine Dream\Tangerine Dream - 1996 - The Dream Roots Collection\Tangerine Dream - 1996 - The Dream Roots Collection- CD Two\07 - Central Park.wav

Pre-gap length 0:00:02.73

Peak level 98.1 %
Track quality 100.0 %
Test CRC FC0F7C1D
Copy CRC FC0F7C1D
Accurately ripped (confidence 13) [3EAF98E1]
Copy OK

Track 8

Filename H:\flac\Tangerine Dream\Tangerine Dream - 1996 - The Dream Roots Collection\Tangerine Dream - 1996 - The Dream Roots Collection- CD Two\08 - Zen Garden.wav

Pre-gap length 0:00:02.73

Peak level 98.4 %
Track quality 100.0 %
Test CRC 437CA4C3
Copy CRC 437CA4C3
Accurately ripped (confidence 13) [3116B651]
Copy OK

Track 9

Filename H:\flac\Tangerine Dream\Tangerine Dream - 1996 - The Dream Roots Collection\Tangerine Dream - 1996 - The Dream Roots Collection- CD Two\09 - Livemiles (Berlin Concert (2)).wav

Pre-gap length 0:00:02.73

Peak level 98.4 %
Track quality 100.0 %
Test CRC FAEAF231
Copy CRC FAEAF231
Accurately ripped (confidence 13) [6EF651FE]
Copy OK


All tracks accurately ripped

No errors occurred

End of status report

[CUETools log; Date: 26.05.2016 18:34:06; Version: 2.1.4]
[CTDB TOCID: zPpkaxk2ekO_BNrz8Mxi7znF8ow-] found.
Track | CTDB Status
1 | (15/15) Accurately ripped
2 | (15/15) Accurately ripped
3 | (15/15) Accurately ripped
4 | (15/15) Accurately ripped
5 | (15/15) Accurately ripped
6 | (15/15) Accurately ripped
7 | (15/15) Accurately ripped
8 | (15/15) Accurately ripped
9 | (15/15) Accurately ripped
[AccurateRip ID: 001239b6-00843cba-780c1f09] found.
Track [ CRC | V2 ] Status
01 [ef418b4b|8f5bfae6] (16+13/29) Accurately ripped
02 [b0f5163a|2097ea62] (16+13/29) Accurately ripped
03 [f7e01e54|933f5590] (16+13/29) Accurately ripped
04 [3d14466a|953a3383] (16+13/29) Accurately ripped
05 [69589276|1882ba11] (16+13/29) Accurately ripped
06 [b9ff35ca|56cdd5a8] (16+13/29) Accurately ripped
07 [3eaf98e1|e78c5faf] (16+13/29) Accurately ripped
08 [3116b651|c20ab715] (16+13/29) Accurately ripped
09 [6ef651fe|85949eee] (16+13/29) Accurately ripped

Track Peak [ CRC32 ] [W/O NULL] [ LOG ]
– 99,5 [E3F6EDF4] [1E25AE09]
01 98,4 [41301F4F] [D753638F] CRC32
02 99,5 [367D9FEC] [BA40BC95] CRC32
03 98,1 [32FFAD28] [EE4FF550] CRC32
04 99,0 [9C5178CB] [F73C49C6] CRC32
05 98,1 [C3538078] [ADC864F0] CRC32
06 98,1 [82374972] [6BBB0B09] CRC32
07 98,1 [FC0F7C1D] [944BE945] CRC32
08 98,4 [437CA4C3] [D7DD2E5C] CRC32
09 98,4 [FAEAF231] [DCF1BD40] CRC32

Tangerine Dream - The Dream Roots Collection [5CD Box Set] (1996)

CD 3
EAC Rip | FLAC (tracks+.cue+log) - 363 MB | MP3 CBR 320 kbps (LAME 3.93) - 140 MB | Covers (5 MB) included
Genre: Electronic, Berlin School/New Age | RAR 3% Rec. | Label: Essential (ESFCD420/3)

Tracklist:
01. Le Parc
02. 21st Century Common Man
03. Underwater Sunlight
04. Livemiles (Excerpt)
05. London (The Dungeon) (1995 Remix)
06. Gaudi Park
07. Barbakane (Part One) (1995 Remix)
08. Alchemy Of The Heart (Excerpt)
09. Barbakane (1996 Remix)

Total time: 57:28

Exact Audio Copy V0.99 prebeta 5 from 4. May 2009

EAC extraction logfile from 4. March 2010, 11:11

Tangerine Dream / The Dream Roots Collection: CD Three

Used drive : HL-DT-STDVDRAM GT20L Adapter: 3 ID: 0

Read mode : Secure
Utilize accurate stream : Yes
Defeat audio cache : Yes
Make use of C2 pointers : No

Read offset correction : 667
Overread into Lead-In and Lead-Out : No
Fill up missing offset samples with silence : Yes
Delete leading and trailing silent blocks : No
Null samples used in CRC calculations : Yes
Used interface : Native Win32 interface for Win NT & 2000
Gap handling : Appended to previous track

Used output format : User Defined Encoder
Selected bitrate : 768 kBit/s
Quality : High
Add ID3 tag : No
Command line compressor : C:\Program Files\FLAC\flac.exe
Additional command line options : -V -8 -T "artist=%a" -T "title=%t" -T "album=%g" -T "date=%y" -T "tracknumber=%n" -T "genre=%m" %s


TOC of the extracted CD

Track | Start | Length | Start sector | End sector
––––––––––––––––––––––––––––-
1 | 0:00.00 | 3:25.45 | 0 | 15419
2 | 3:25.45 | 3:56.72 | 15420 | 33191
3 | 7:22.42 | 5:53.15 | 33192 | 59681
4 | 13:15.57 | 9:01.58 | 59682 | 100314
5 | 22:17.40 | 7:11.37 | 100315 | 132676
6 | 29:29.02 | 5:20.60 | 132677 | 156736
7 | 34:49.62 | 6:00.58 | 156737 | 183794
8 | 40:50.45 | 8:44.72 | 183795 | 223166
9 | 49:35.42 | 7:51.65 | 223167 | 258556


Track 1

Filename H:\flac\Tangerine Dream\Tangerine Dream - 1996 - The Dream Roots Collection\Tangerine Dream - 1996 - The Dream Roots Collection- CD Three\01 - Le Parc.wav

Pre-gap length 0:00:02.00

Peak level 98.4 %
Track quality 100.0 %
Test CRC 50BA9D98
Copy CRC 50BA9D98
Accurately ripped (confidence 13) [D180495A]
Copy OK

Track 2

Filename H:\flac\Tangerine Dream\Tangerine Dream - 1996 - The Dream Roots Collection\Tangerine Dream - 1996 - The Dream Roots Collection- CD Three\02 - 21st Century Common Man.wav

Pre-gap length 0:00:02.77

Peak level 98.6 %
Track quality 100.0 %
Test CRC 309ACDE0
Copy CRC 309ACDE0
Accurately ripped (confidence 13) [788F531B]
Copy OK

Track 3

Filename H:\flac\Tangerine Dream\Tangerine Dream - 1996 - The Dream Roots Collection\Tangerine Dream - 1996 - The Dream Roots Collection- CD Three\03 - Underwater Sunlight.wav

Pre-gap length 0:00:02.73

Peak level 98.8 %
Track quality 100.0 %
Test CRC 18492BBA
Copy CRC 18492BBA
Accurately ripped (confidence 13) [E434D243]
Copy OK

Track 4

Filename H:\flac\Tangerine Dream\Tangerine Dream - 1996 - The Dream Roots Collection\Tangerine Dream - 1996 - The Dream Roots Collection- CD Three\04 - Livemiles.wav

Pre-gap length 0:00:02.73

Peak level 99.3 %
Track quality 100.0 %
Test CRC 1A8B3BFB
Copy CRC 1A8B3BFB
Accurately ripped (confidence 13) [070FB8AD]
Copy OK

Track 5

Filename H:\flac\Tangerine Dream\Tangerine Dream - 1996 - The Dream Roots Collection\Tangerine Dream - 1996 - The Dream Roots Collection- CD Three\05 - London (The Dungeon).wav

Pre-gap length 0:00:02.73

Peak level 93.0 %
Track quality 100.0 %
Test CRC BD382F80
Copy CRC BD382F80
Accurately ripped (confidence 13) [49301E5D]
Copy OK

Track 6

Filename H:\flac\Tangerine Dream\Tangerine Dream - 1996 - The Dream Roots Collection\Tangerine Dream - 1996 - The Dream Roots Collection- CD Three\06 - Gaudi Park.wav

Pre-gap length 0:00:02.73

Peak level 98.8 %
Track quality 100.0 %
Test CRC FDA6E5A5
Copy CRC FDA6E5A5
Accurately ripped (confidence 13) [14BE764F]
Copy OK

Track 7

Filename H:\flac\Tangerine Dream\Tangerine Dream - 1996 - The Dream Roots Collection\Tangerine Dream - 1996 - The Dream Roots Collection- CD Three\07 - Barbakane (Part One).wav

Pre-gap length 0:00:02.73

Peak level 98.2 %
Track quality 100.0 %
Test CRC B22AF709
Copy CRC B22AF709
Accurately ripped (confidence 13) [E938A0BB]
Copy OK

Track 8

Filename H:\flac\Tangerine Dream\Tangerine Dream - 1996 - The Dream Roots Collection\Tangerine Dream - 1996 - The Dream Roots Collection- CD Three\08 - Alchemy Of The Heart.wav

Pre-gap length 0:00:02.73

Peak level 98.1 %
Track quality 99.9 %
Test CRC AE40182F
Copy CRC AE40182F
Accurately ripped (confidence 13) [03D02567]
Copy OK

Track 9

Filename H:\flac\Tangerine Dream\Tangerine Dream - 1996 - The Dream Roots Collection\Tangerine Dream - 1996 - The Dream Roots Collection- CD Three\09 - Horizon.wav

Pre-gap length 0:00:02.73

Peak level 99.0 %
Track quality 99.9 %
Test CRC 3E72110B
Copy CRC 3E72110B
Accurately ripped (confidence 13) [8DE3E2A5]
Copy OK


All tracks accurately ripped

No errors occurred

End of status report

[CUETools log; Date: 26.05.2016 18:34:30; Version: 2.1.4]
[CTDB TOCID: N2AEDQyyCDpCuvyra8gli6Jo.g8-] found.
Track | CTDB Status
1 | (16/16) Accurately ripped
2 | (16/16) Accurately ripped
3 | (16/16) Accurately ripped
4 | (16/16) Accurately ripped
5 | (16/16) Accurately ripped
6 | (16/16) Accurately ripped
7 | (16/16) Accurately ripped
8 | (16/16) Accurately ripped
9 | (16/16) Accurately ripped
[AccurateRip ID: 0011c116-0086b5d6-800d7709] found.
Track [ CRC | V2 ] Status
01 [d180495a|0fb5bc2c] (16+13/29) Accurately ripped
02 [788f531b|c2d9bbc5] (16+13/29) Accurately ripped
03 [e434d243|d56bbf24] (16+13/29) Accurately ripped
04 [070fb8ad|f3a1fcc1] (16+13/29) Accurately ripped
05 [49301e5d|092c3d84] (16+13/29) Accurately ripped
06 [14be764f|20f172fd] (16+13/29) Accurately ripped
07 [e938a0bb|cd48275e] (16+13/29) Accurately ripped
08 [03d02567|0468d25d] (16+13/29) Accurately ripped
09 [8de3e2a5|61a41843] (16+13/29) Accurately ripped

Track Peak [ CRC32 ] [W/O NULL] [ LOG ]
– 99,3 [B7FC2B13] [419D056B]
01 98,4 [50BA9D98] [0B6896CF] CRC32
02 98,6 [309ACDE0] [254211D4] CRC32
03 98,8 [18492BBA] [21F6E9C9] CRC32
04 99,3 [1A8B3BFB] [8D4C9D4F] CRC32
05 93,0 [BD382F80] [65C69F34] CRC32
06 98,8 [FDA6E5A5] [D08AB1F2] CRC32
07 98,2 [B22AF709] [1234F503] CRC32
08 98,1 [AE40182F] [3C5623CF] CRC32
09 99,0 [3E72110B] [617981C6] CRC32

Tangerine Dream - The Dream Roots Collection [5CD Box Set] (1996)

CD 4
EAC Rip | FLAC (tracks+.cue+log) - 382 MB | MP3 CBR 320 kbps (LAME 3.93) - 144 MB | Covers (4 MB) included
Genre: Electronic, Berlin School/New Age | RAR 3% Rec. | Label: Essential (ESFCD420/4)

Tracklist:
01. Song Of The Whale, Part 1: From Dawn… (Excerpt)
02. Yellowstone Park
03. Tyger (Jungle Mystery Song)
04. Bois De Boulogne
05. Tiergarten (1996 Remix)
06. Poland (1995 Remix)
07. Barbakane (Part Two) (1995 Remix)
08. Livemiles (San Buena Vantura)
09. Rarebird (1996 Remix)
10. Song Of The Whale, Part 2: …To Dusk) (1995 Remix)
11. London (Rotten Row Patriot) (1995 Remix)

Total time: 59:21

Exact Audio Copy V0.99 prebeta 5 from 4. May 2009

EAC extraction logfile from 4. March 2010, 11:54

Tangerine Dream / The Dream Roots Collection: CD Four

Used drive : HL-DT-STDVDRAM GT20L Adapter: 3 ID: 0

Read mode : Secure
Utilize accurate stream : Yes
Defeat audio cache : Yes
Make use of C2 pointers : No

Read offset correction : 667
Overread into Lead-In and Lead-Out : No
Fill up missing offset samples with silence : Yes
Delete leading and trailing silent blocks : No
Null samples used in CRC calculations : Yes
Used interface : Native Win32 interface for Win NT & 2000
Gap handling : Appended to previous track

Used output format : User Defined Encoder
Selected bitrate : 768 kBit/s
Quality : High
Add ID3 tag : No
Command line compressor : C:\Program Files\FLAC\flac.exe
Additional command line options : -V -8 -T "artist=%a" -T "title=%t" -T "album=%g" -T "date=%y" -T "tracknumber=%n" -T "genre=%m" %s


TOC of the extracted CD

Track | Start | Length | Start sector | End sector
––––––––––––––––––––––––––––-
1 | 0:00.00 | 5:04.02 | 0 | 22801
2 | 5:04.02 | 6:13.60 | 22802 | 50836
3 | 11:17.62 | 5:37.00 | 50837 | 76111
4 | 16:54.62 | 5:17.03 | 76112 | 99889
5 | 22:11.65 | 3:18.12 | 99890 | 114751
6 | 25:30.02 | 9:21.68 | 114752 | 156894
7 | 34:51.70 | 4:17.22 | 156895 | 176191
8 | 39:09.17 | 5:15.25 | 176192 | 199841
9 | 44:24.42 | 4:00.55 | 199842 | 217896
10 | 48:25.22 | 6:00.60 | 217897 | 244956
11 | 54:26.07 | 4:54.38 | 244957 | 267044


Track 1

Filename H:\flac\Tangerine Dream\Tangerine Dream - 1996 - The Dream Roots Collection\Tangerine Dream - 1996 - The Dream Roots Collection- CD Four\01 - Song Of The Whale - 1 - From Dawn.wav

Pre-gap length 0:00:02.00

Peak level 99.4 %
Track quality 100.0 %
Test CRC 1492280D
Copy CRC 1492280D
Accurately ripped (confidence 13) [15096E47]
Copy OK

Track 2

Filename H:\flac\Tangerine Dream\Tangerine Dream - 1996 - The Dream Roots Collection\Tangerine Dream - 1996 - The Dream Roots Collection- CD Four\02 - Yellowstone Park.wav

Pre-gap length 0:00:02.73

Peak level 98.2 %
Track quality 100.0 %
Test CRC 6251886D
Copy CRC 6251886D
Accurately ripped (confidence 13) [88C27C96]
Copy OK

Track 3

Filename H:\flac\Tangerine Dream\Tangerine Dream - 1996 - The Dream Roots Collection\Tangerine Dream - 1996 - The Dream Roots Collection- CD Four\03 - Tyger (Jungle Mystery Song).wav

Pre-gap length 0:00:02.73

Peak level 99.1 %
Track quality 100.0 %
Test CRC 5406C6D3
Copy CRC 5406C6D3
Accurately ripped (confidence 13) [76997F59]
Copy OK

Track 4

Filename H:\flac\Tangerine Dream\Tangerine Dream - 1996 - The Dream Roots Collection\Tangerine Dream - 1996 - The Dream Roots Collection- CD Four\04 - Bois De Boulogne.wav

Pre-gap length 0:00:02.73

Peak level 98.1 %
Track quality 100.0 %
Test CRC 0A621BB8
Copy CRC 0A621BB8
Accurately ripped (confidence 13) [39F2AAFE]
Copy OK

Track 5

Filename H:\flac\Tangerine Dream\Tangerine Dream - 1996 - The Dream Roots Collection\Tangerine Dream - 1996 - The Dream Roots Collection- CD Four\05 - Tiergarten.wav

Pre-gap length 0:00:02.73

Peak level 98.1 %
Track quality 100.0 %
Test CRC 1565A2F3
Copy CRC 1565A2F3
Accurately ripped (confidence 13) [546A03EE]
Copy OK

Track 6

Filename H:\flac\Tangerine Dream\Tangerine Dream - 1996 - The Dream Roots Collection\Tangerine Dream - 1996 - The Dream Roots Collection- CD Four\06 - Poland.wav

Pre-gap length 0:00:02.73

Peak level 99.1 %
Track quality 100.0 %
Test CRC 439B7FA0
Copy CRC 439B7FA0
Accurately ripped (confidence 13) [5B90AB26]
Copy OK

Track 7

Filename H:\flac\Tangerine Dream\Tangerine Dream - 1996 - The Dream Roots Collection\Tangerine Dream - 1996 - The Dream Roots Collection- CD Four\07 - Barbakane (Part Two).wav

Pre-gap length 0:00:02.73

Peak level 98.0 %
Track quality 100.0 %
Test CRC 2D56063A
Copy CRC 2D56063A
Accurately ripped (confidence 13) [C5B8BF3D]
Copy OK

Track 8

Filename H:\flac\Tangerine Dream\Tangerine Dream - 1996 - The Dream Roots Collection\Tangerine Dream - 1996 - The Dream Roots Collection- CD Four\08 - Livemiles (San Buena Ventura).wav

Pre-gap length 0:00:02.76

Peak level 98.7 %
Track quality 100.0 %
Test CRC 01B9AFA7
Copy CRC 01B9AFA7
Accurately ripped (confidence 13) [B8A438D4]
Copy OK

Track 9

Filename H:\flac\Tangerine Dream\Tangerine Dream - 1996 - The Dream Roots Collection\Tangerine Dream - 1996 - The Dream Roots Collection- CD Four\09 - Rarebird.wav

Pre-gap length 0:00:02.73

Peak level 98.1 %
Track quality 99.9 %
Test CRC 2E181940
Copy CRC 2E181940
Accurately ripped (confidence 13) [5E53F689]
Copy OK

Track 10

Filename H:\flac\Tangerine Dream\Tangerine Dream - 1996 - The Dream Roots Collection\Tangerine Dream - 1996 - The Dream Roots Collection- CD Four\10 - Song Of The Whale - 2 - To Dusk.wav

Pre-gap length 0:00:02.73

Peak level 98.2 %
Track quality 100.0 %
Test CRC A2E50DBD
Copy CRC A2E50DBD
Accurately ripped (confidence 13) [8BD5E283]
Copy OK

Track 11

Filename H:\flac\Tangerine Dream\Tangerine Dream - 1996 - The Dream Roots Collection\Tangerine Dream - 1996 - The Dream Roots Collection- CD Four\11 - London (Rotten Row Patriot).wav

Pre-gap length 0:00:02.77

Peak level 99.5 %
Track quality 100.0 %
Test CRC 71DEC64B
Copy CRC 71DEC64B
Accurately ripped (confidence 13) [36FA974F]
Copy OK


All tracks accurately ripped

No errors occurred

End of status report

[CUETools log; Date: 26.05.2016 18:34:55; Version: 2.1.4]
[CTDB TOCID: bw6vBnyF8Ni8bnAruL4k.zG1ZgE-] found.
Track | CTDB Status
1 | (16/16) Accurately ripped
2 | (16/16) Accurately ripped
3 | (16/16) Accurately ripped
4 | (16/16) Accurately ripped
5 | (16/16) Accurately ripped
6 | (16/16) Accurately ripped
7 | (16/16) Accurately ripped
8 | (16/16) Accurately ripped
9 | (16/16) Accurately ripped
10 | (16/16) Accurately ripped
11 | (16/16) Accurately ripped
[AccurateRip ID: 0018d455-00d6c43e-900de80b] found.
Track [ CRC | V2 ] Status
01 [15096e47|b528e925] (16+12/28) Accurately ripped
02 [88c27c96|e0d66a41] (16+12/28) Accurately ripped
03 [76997f59|a7a215c0] (16+12/28) Accurately ripped
04 [39f2aafe|a66fd7c3] (16+12/28) Accurately ripped
05 [546a03ee|9988bd02] (16+12/28) Accurately ripped
06 [5b90ab26|d21b08b5] (16+12/28) Accurately ripped
07 [c5b8bf3d|44b5f916] (16+12/28) Accurately ripped
08 [b8a438d4|3b6b911e] (16+12/28) Accurately ripped
09 [5e53f689|d5190d18] (16+12/28) Accurately ripped
10 [8bd5e283|736549b8] (16+12/28) Accurately ripped
11 [36fa974f|a2b47a6d] (16+12/28) Accurately ripped

Track Peak [ CRC32 ] [W/O NULL] [ LOG ]
– 99,5 [E448B75A] [C9CBE441]
01 99,4 [1492280D] [A6032CF3] CRC32
02 98,2 [6251886D] [1E5B78DD] CRC32
03 99,1 [5406C6D3] [BCD86DD0] CRC32
04 98,1 [0A621BB8] [E1F11010] CRC32
05 98,1 [1565A2F3] [2B743C53] CRC32
06 99,1 [439B7FA0] [2ECE335D] CRC32
07 98,0 [2D56063A] [F8EE14FF] CRC32
08 98,7 [01B9AFA7] [E98A7F15] CRC32
09 98,1 [2E181940] [F05636B9] CRC32
10 98,2 [A2E50DBD] [391E05D3] CRC32
11 99,5 [71DEC64B] [64A1BB78] CRC32

Tangerine Dream - The Dream Roots Collection [5CD Box Set] (1996)

CD 5
EAC Rip | FLAC (tracks+.cue+log) - 382 MB | MP3 CBR 320 kbps (LAME 3.93) - 144 MB | Covers (3 MB) included
Genre: Electronic, Berlin School/New Age | RAR 3% Rec. | Label: Essential (ESFCD420/5)

Tracklist:
01. Valley Of The Sun
02. Beach Bay Bunker
03. Vanishing Blue
04. Red Morpho

Total time: 45:40

Exact Audio Copy V0.99 prebeta 5 from 4. May 2009

EAC extraction logfile from 4. March 2010, 13:45

Tangerine Dream / The Dream Roots Collection: CD Five

Used drive : HL-DT-STDVDRAM GT20L Adapter: 3 ID: 0

Read mode : Secure
Utilize accurate stream : Yes
Defeat audio cache : Yes
Make use of C2 pointers : No

Read offset correction : 667
Overread into Lead-In and Lead-Out : No
Fill up missing offset samples with silence : Yes
Delete leading and trailing silent blocks : No
Null samples used in CRC calculations : Yes
Used interface : Native Win32 interface for Win NT & 2000
Gap handling : Appended to previous track

Used output format : User Defined Encoder
Selected bitrate : 768 kBit/s
Quality : High
Add ID3 tag : No
Command line compressor : C:\Program Files\FLAC\flac.exe
Additional command line options : -V -8 -T "artist=%a" -T "title=%t" -T "album=%g" -T "date=%y" -T "tracknumber=%n" -T "genre=%m" %s


TOC of the extracted CD

Track | Start | Length | Start sector | End sector
––––––––––––––––––––––––––––-
1 | 0:00.00 | 15:07.05 | 0 | 68029
2 | 15:07.05 | 9:41.15 | 68030 | 111619
3 | 24:48.20 | 9:13.15 | 111620 | 153109
4 | 34:01.35 | 11:39.37 | 153110 | 205571


Track 1

Filename H:\flac\Tangerine Dream\Tangerine Dream - 1996 - The Dream Roots Collection\Tangerine Dream - 1996 - The Dream Roots Collection- CD Five\01 - Valley Of The Sun.wav

Pre-gap length 0:00:02.00

Peak level 98.6 %
Track quality 100.0 %
Test CRC 75503FEF
Copy CRC 75503FEF
Accurately ripped (confidence 13) [24C1E2EC]
Copy OK

Track 2

Filename H:\flac\Tangerine Dream\Tangerine Dream - 1996 - The Dream Roots Collection\Tangerine Dream - 1996 - The Dream Roots Collection- CD Five\02 - Beach Bay Bunker.wav

Pre-gap length 0:00:02.73

Peak level 98.4 %
Track quality 100.0 %
Test CRC 08E15A4A
Copy CRC 08E15A4A
Accurately ripped (confidence 13) [ED3808D2]
Copy OK

Track 3

Filename H:\flac\Tangerine Dream\Tangerine Dream - 1996 - The Dream Roots Collection\Tangerine Dream - 1996 - The Dream Roots Collection- CD Five\03 - Vanishing Blue.wav

Pre-gap length 0:00:02.73

Peak level 98.0 %
Track quality 99.9 %
Test CRC 306693C9
Copy CRC 306693C9
Accurately ripped (confidence 13) [437E1A2E]
Copy OK

Track 4

Filename H:\flac\Tangerine Dream\Tangerine Dream - 1996 - The Dream Roots Collection\Tangerine Dream - 1996 - The Dream Roots Collection- CD Five\04 - Red Morpho.wav

Pre-gap length 0:00:02.73

Peak level 99.0 %
Track quality 100.0 %
Test CRC 69AF9780
Copy CRC 69AF9780
Accurately ripped (confidence 13) [6FF221FA]
Copy OK


All tracks accurately ripped

No errors occurred

End of status report

[CUETools log; Date: 26.05.2016 18:35:17; Version: 2.1.4]
[CTDB TOCID: MwoZmRm84Ue1dVhh2emSam1ZjCQ-] found.
Track | CTDB Status
1 | (18/18) Accurately ripped
2 | (18/18) Accurately ripped
3 | (18/18) Accurately ripped
4 | (18/18) Accurately ripped
[AccurateRip ID: 000836dc-002036f5-2b0ab404] found.
Track [ CRC | V2 ] Status
01 [24c1e2ec|860e60ee] (18+14/32) Accurately ripped
02 [ed3808d2|256c9e7a] (18+14/32) Accurately ripped
03 [437e1a2e|c7cd9b2e] (18+14/32) Accurately ripped
04 [6ff221fa|3c10faf5] (18+14/32) Accurately ripped

Track Peak [ CRC32 ] [W/O NULL] [ LOG ]
– 99,0 [07CA66F6] [E4EC762F]
01 98,6 [75503FEF] [FF18AF52] CRC32
02 98,4 [08E15A4A] [722F72C4] CRC32
03 98,0 [306693C9] [A493FB1A] CRC32
04 99,0 [69AF9780] [770B4E05] CRC32

Thanks to the original releaser