Tags
Language
Tags

Tangerine Dream - The Electronic Journey (2010) [10CD Box Set]

Posted By: gribovar
Tangerine Dream - The Electronic Journey (2010) [10CD Box Set]

Tangerine Dream - The Electronic Journey (2010) [10CD Box Set]
EAC Rip | FLAC (image+.cue+log) - 3,84 GB | MP3 CBR 320 kbps (LAME 3.93) - 1,47 GB | Covers included
Genre: Electronic, Berlin School, New Age | RAR 3% Rec. | Label: Membran/Eastgate Music (233086)

Having re-released a large part of Tangerine Dream's back catalog in 2009, the Germany based Membran label released the box set The Electronic Journey in September 2010. It contains ten full-length albums from the Membran catalog, all repackaged in cardboard sleeves and put together in a cardboard box. Recording date 1982-2006.
CD 1 Tracklist (The Seven Letters From Tibet, Remastered):
01. The First Letter: The Red Blood Connection
02. The Second Letter: The Orange Breath
03. The Third Letter: The Golden Head
04. The Fourth Letter: The Green Land
05. The Fifth Letter: The Blue Pearl
06. The Sixth Letter: The Indigo Clouds
07. The Seventh Letter: The Purple Of All Curtains

Total time: 49:30

CD 2 Tracklist (Starbound Collection, Remastered):
01. Turn Of The Tides
02. Living In A Fountain Pen
03. Midwinter Night
04. Tyranny Of Beauty
05. Birdwatcher’s Dream
06. Body Corporate
07. Death Of A Nightingale
08. Haze Of Fame
09. Story Of The Brave
10. Homeless (1992 live version)

Total time: 01:04:45

CD 3 Tracklist (Silver Siren Collection, Partly remastered & Live performances):
01. Beauty Of The Blast
02. Longing For Cashba
03. Bois De Boulogne
04. Stoneyard
05. Akash Deep
06. Storm Seekers
07. Gaudi Park
08. Last Trumpet On 23rd Street
09. Silver Siren
10. Dream Sculpture

Total time: 55:55

CD 4 Tracklist (Ocean Waves Collection, Remastered):
01. Quinoa
02. Acient Power Plant
03. Speed Dragon
04. Oceanride
05. Sundance Kid
06. Hamlet

Total time: 51:25

CD 5 Tracklist (Transsiberia):
01. Yaroslaw Station
02. Smoky Karlow
03. Siberian Lights
04. Jenissei River
05. Baikal Sunrise
06. Samowar Juri
07. Ulan Ude
08. Chingan Night
09. Russian Soul
10. The Golden Horn

Total time: 53:29

CD 6 Tracklist (Cyberjam Collection, Remastered):
01. Cool Shibuya
02. Culpa Levis
03. Sad Merlin‘s Sunday
04. Exit (re-rec)
05. Elf June And The Midnight Patrol (vienna mix)
06. Forth Worth Runway One
07. Order Of The Ginger Guild
08. Iguana
09. At Darwin‘s Hotel
10. United Goblin‘s Parade

Total time: 01:05:29

CD 7 Tracklist (The Dante Song Collection from the Divine Comedy):
01. Chasing The Bad Seeds
02. Hope And Glory
03. Dante In Despair
04. Soulgate
05. Sisyphus
06. The Spirit Of Virgil
07. Transformazione
08. Prison And Paradise
09. Beyond Sodom And Gomorrha
10. La Ley De La Montana
11. Mercury Sphere
12. Invisible Sun
13. No More Birth No More Death
14. L‘Ultima Tromba d‘Oro

Total time: 01:13:40

CD 8 Tracklist (Canyon Cazuma):
01. Cedar Breaks
02. A Matter Of Time
03. Cliff Dwellers
04. Hopi Mesa Heart
05. Purple Nightfall
06. Reflections
07. Rocky Mountain Hawk
08. Shadow Flyer
09. Water‘s Gift
10. Zion

Total time: 54:19

CD 9 Tracklist (Tangines Scales, Newly recorded):
01. After The Call (re-rec)
02. Barbakane (re-rec)
03. Horizon (Warsaw Gate Mix) (re-rec)
04. House Of The Rising Sun (Southend Mix) Trad.
05. Livemiles (Morning Glow Mix) (re-rec)
06. Storm Seekers / Cool Shibuya
07. Story Of The Brave (Vienna Mix)
08. Sungate (Red Rock Mix)
09. Teetering Scale (live)
10. Underwater Sunlight (re-rec)

Total time: 01:01:41

CD 10 Tracklist (The Independent Years, Newly recorded):
01. Atlas Eyes
02. The Midnight Trail
03. Twin Soul Tribe
04. Ruling The Waves
05. Marakesh
06. Crystal Curfew
07. Blue Mango Café
08. Three Bikes In The Sky
09. Valley Of The Kings
10. Long Island Sunset
11. Yucatan
12. Alaskan Summer
13. Electric Lion

Total time: 01:13:06

Exact Audio Copy V0.99 prebeta 5 from 4. May 2009

EAC extraction logfile from 17. April 2013, 13:04

Tangerine Dream / The Electronic Journey (Seven Letters From Tibet)

Used drive : ASUS DRW-22B2L Adapter: 0 ID: 0

Read mode : Secure
Utilize accurate stream : Yes
Defeat audio cache : Yes
Make use of C2 pointers : No

Read offset correction : 6
Overread into Lead-In and Lead-Out : No
Fill up missing offset samples with silence : Yes
Delete leading and trailing silent blocks : No
Null samples used in CRC calculations : Yes
Used interface : Native Win32 interface for Win NT & 2000

Used output format : Internal WAV Routines
Sample format : 44.100 Hz; 16 Bit; Stereo


TOC of the extracted CD

Track | Start | Length | Start sector | End sector
––––––––––––––––––––––––––––-
1 | 0:00.00 | 4:48.08 | 0 | 21607
2 | 4:48.08 | 6:14.63 | 21608 | 49720
3 | 11:02.71 | 5:47.05 | 49721 | 75750
4 | 16:50.01 | 7:27.12 | 75751 | 109287
5 | 24:17.13 | 14:07.22 | 109288 | 172834
6 | 38:24.35 | 7:06.38 | 172835 | 204822
7 | 45:30.73 | 3:58.54 | 204823 | 222726


Range status and errors

Selected range

Filename D:\EAC\Tangerine Dream - The Electronic Journey (CD 01).wav

Peak level 100.0 %
Range quality 100.0 %
Test CRC F347F748
Copy CRC F347F748
Copy OK

No errors occurred


AccurateRip summary

Track 1 accurately ripped (confidence 2) [B2CED82A]
Track 2 accurately ripped (confidence 2) [B6D841A2]
Track 3 accurately ripped (confidence 2) [900E714B]
Track 4 accurately ripped (confidence 2) [22B14762]
Track 5 accurately ripped (confidence 2) [180BFCD3]
Track 6 accurately ripped (confidence 2) [A5C4EBE3]
Track 7 accurately ripped (confidence 2) [7F1FFDE0]

All tracks accurately ripped

End of status report

Exact Audio Copy V0.99 prebeta 5 from 4. May 2009

EAC extraction logfile from 17. April 2013, 13:31

Tangerine Dream / The Electronic Journey (Starbound Collection)

Used drive : ASUS DRW-22B2L Adapter: 0 ID: 0

Read mode : Secure
Utilize accurate stream : Yes
Defeat audio cache : Yes
Make use of C2 pointers : No

Read offset correction : 6
Overread into Lead-In and Lead-Out : No
Fill up missing offset samples with silence : Yes
Delete leading and trailing silent blocks : No
Null samples used in CRC calculations : Yes
Used interface : Native Win32 interface for Win NT & 2000

Used output format : Internal WAV Routines
Sample format : 44.100 Hz; 16 Bit; Stereo


TOC of the extracted CD

Track | Start | Length | Start sector | End sector
––––––––––––––––––––––––––––-
1 | 0:00.00 | 7:40.68 | 0 | 34567
2 | 7:40.68 | 6:57.55 | 34568 | 65897
3 | 14:38.48 | 4:40.21 | 65898 | 86918
4 | 19:18.69 | 6:32.13 | 86919 | 116331
5 | 25:51.07 | 6:50.26 | 116332 | 147107
6 | 32:41.33 | 3:45.71 | 147108 | 164053
7 | 36:27.29 | 5:31.44 | 164054 | 188922
8 | 41:58.73 | 8:27.66 | 188923 | 227013
9 | 50:26.64 | 5:20.21 | 227014 | 251034
10 | 55:47.10 | 8:57.35 | 251035 | 291344


Range status and errors

Selected range

Filename D:\EAC\Tangerine Dream - The Electronic Journey (CD 02).wav

Peak level 100.0 %
Range quality 100.0 %
Test CRC AD615752
Copy CRC AD615752
Copy OK

No errors occurred


AccurateRip summary

Track 1 accurately ripped (confidence 2) [32B8D214]
Track 2 accurately ripped (confidence 2) [8C1CA274]
Track 3 accurately ripped (confidence 2) [BA947177]
Track 4 accurately ripped (confidence 2) [9775A288]
Track 5 accurately ripped (confidence 2) [0C9A69F0]
Track 6 accurately ripped (confidence 2) [CEAFCF21]
Track 7 accurately ripped (confidence 2) [41CFAE5E]
Track 8 accurately ripped (confidence 2) [5139F225]
Track 9 accurately ripped (confidence 2) [CF5CCFAD]
Track 10 cannot be verified as accurate (confidence 3) [8E0E0865], AccurateRip returned [F07B1CFC]

9 track(s) accurately ripped
1 track(s) could not be verified as accurate

Some tracks could not be verified as accurate

End of status report

Exact Audio Copy V0.99 prebeta 5 from 4. May 2009

EAC extraction logfile from 17. April 2013, 14:24

Tangerine Dream / The Electronic Journey (Silver Siren Collection)

Used drive : ASUS DRW-22B2L Adapter: 0 ID: 0

Read mode : Secure
Utilize accurate stream : Yes
Defeat audio cache : Yes
Make use of C2 pointers : No

Read offset correction : 6
Overread into Lead-In and Lead-Out : No
Fill up missing offset samples with silence : Yes
Delete leading and trailing silent blocks : No
Null samples used in CRC calculations : Yes
Used interface : Native Win32 interface for Win NT & 2000

Used output format : Internal WAV Routines
Sample format : 44.100 Hz; 16 Bit; Stereo


TOC of the extracted CD

Track | Start | Length | Start sector | End sector
––––––––––––––––––––––––––––-
1 | 0:00.00 | 3:58.50 | 0 | 17899
2 | 3:58.50 | 7:39.11 | 17900 | 52335
3 | 11:37.61 | 5:16.34 | 52336 | 76069
4 | 16:54.20 | 6:10.67 | 76070 | 103886
5 | 23:05.12 | 7:25.52 | 103887 | 137313
6 | 30:30.64 | 5:21.43 | 137314 | 161431
7 | 35:52.32 | 5:19.61 | 161432 | 185417
8 | 41:12.18 | 4:31.43 | 185418 | 205785
9 | 45:43.61 | 4:43.18 | 205786 | 227028
10 | 50:27.04 | 5:28.32 | 227029 | 251660


Range status and errors

Selected range

Filename D:\EAC\Tangerine Dream - The Electronic Journey (CD 03).wav

Peak level 98.8 %
Range quality 99.9 %
Test CRC 881A3969
Copy CRC 881A3969
Copy OK

No errors occurred


AccurateRip summary

Track 1 accurately ripped (confidence 5) [76F4A876]
Track 2 accurately ripped (confidence 5) [91E36D00]
Track 3 accurately ripped (confidence 5) [E0F50959]
Track 4 accurately ripped (confidence 5) [EACD2489]
Track 5 accurately ripped (confidence 5) [013D6FB0]
Track 6 accurately ripped (confidence 5) [B10084DA]
Track 7 accurately ripped (confidence 5) [8EC58311]
Track 8 accurately ripped (confidence 5) [F2542048]
Track 9 accurately ripped (confidence 5) [A9CDA3A2]
Track 10 accurately ripped (confidence 5) [A29C884A]

All tracks accurately ripped

End of status report

Exact Audio Copy V0.99 prebeta 5 from 4. May 2009

EAC extraction logfile from 17. April 2013, 15:31

Tangerine Dream / The Electronic Journey (Ocean Waves Collection)

Used drive : ASUS DRW-22B2L Adapter: 0 ID: 0

Read mode : Secure
Utilize accurate stream : Yes
Defeat audio cache : Yes
Make use of C2 pointers : No

Read offset correction : 6
Overread into Lead-In and Lead-Out : No
Fill up missing offset samples with silence : Yes
Delete leading and trailing silent blocks : No
Null samples used in CRC calculations : Yes
Used interface : Native Win32 interface for Win NT & 2000

Used output format : Internal WAV Routines
Sample format : 44.100 Hz; 16 Bit; Stereo


TOC of the extracted CD

Track | Start | Length | Start sector | End sector
––––––––––––––––––––––––––––-
1 | 0:00.00 | 20:50.10 | 0 | 93759
2 | 20:50.10 | 4:30.58 | 93760 | 114067
3 | 25:20.68 | 3:14.58 | 114068 | 128675
4 | 28:35.51 | 8:15.12 | 128676 | 165812
5 | 36:50.63 | 6:26.30 | 165813 | 194792
6 | 43:17.18 | 8:07.58 | 194793 | 231375


Range status and errors

Selected range

Filename D:\EAC\Tangerine Dream - The Electronic Journey (CD 04).wav

Peak level 98.4 %
Range quality 100.0 %
Test CRC 239CE3B4
Copy CRC 239CE3B4
Copy OK

No errors occurred


AccurateRip summary

Track 1 cannot be verified as accurate (confidence 5) [4D4B670C], AccurateRip returned [EF6BB2C4]
Track 2 cannot be verified as accurate (confidence 5) [D0ED57C4], AccurateRip returned [AE6B718E]
Track 3 cannot be verified as accurate (confidence 5) [23A8702F], AccurateRip returned [31994FDD]
Track 4 cannot be verified as accurate (confidence 5) [239B053A], AccurateRip returned [8576C5B8]
Track 5 cannot be verified as accurate (confidence 5) [57EC7215], AccurateRip returned [029FF065]
Track 6 cannot be verified as accurate (confidence 5) [66C34F6D], AccurateRip returned [339E0AD8]

No tracks could be verified as accurate
You may have a different pressing from the one(s) in the database

End of status report

Exact Audio Copy V0.99 prebeta 5 from 4. May 2009

EAC extraction logfile from 17. April 2013, 16:46

Tangerine Dream / The Electronic Journey (Transsiberia)

Used drive : ASUS DRW-22B2L Adapter: 0 ID: 0

Read mode : Secure
Utilize accurate stream : Yes
Defeat audio cache : Yes
Make use of C2 pointers : No

Read offset correction : 6
Overread into Lead-In and Lead-Out : No
Fill up missing offset samples with silence : Yes
Delete leading and trailing silent blocks : No
Null samples used in CRC calculations : Yes
Used interface : Native Win32 interface for Win NT & 2000

Used output format : Internal WAV Routines
Sample format : 44.100 Hz; 16 Bit; Stereo


TOC of the extracted CD

Track | Start | Length | Start sector | End sector
––––––––––––––––––––––––––––-
1 | 0:00.00 | 4:52.31 | 0 | 21930
2 | 4:52.31 | 9:25.53 | 21931 | 64358
3 | 14:18.09 | 4:01.07 | 64359 | 82440
4 | 18:19.16 | 4:44.11 | 82441 | 103751
5 | 23:03.27 | 4:42.59 | 103752 | 124960
6 | 27:46.11 | 4:40.33 | 124961 | 145993
7 | 32:26.44 | 4:35.16 | 145994 | 166634
8 | 37:01.60 | 6:55.27 | 166635 | 197786
9 | 43:57.12 | 4:13.67 | 197787 | 216828
10 | 48:11.04 | 5:18.33 | 216829 | 240711


Range status and errors

Selected range

Filename D:\EAC\Tangerine Dream - The Electronic Journey (CD 05).wav

Peak level 100.0 %
Range quality 100.0 %
Test CRC 666D438B
Copy CRC 666D438B
Copy OK

No errors occurred


AccurateRip summary

Track 1 accurately ripped (confidence 2) [B33049B3]
Track 2 accurately ripped (confidence 2) [36BDF24F]
Track 3 accurately ripped (confidence 2) [59F4A210]
Track 4 accurately ripped (confidence 2) [A2696EE7]
Track 5 accurately ripped (confidence 2) [DDBC4344]
Track 6 accurately ripped (confidence 2) [3CC2F000]
Track 7 accurately ripped (confidence 2) [7489B7FB]
Track 8 cannot be verified as accurate (confidence 3) [738DE7EA], AccurateRip returned [644F0736]
Track 9 cannot be verified as accurate (confidence 3) [3790BF80], AccurateRip returned [5265DB84]
Track 10 cannot be verified as accurate (confidence 3) [3FB3CA93], AccurateRip returned [9D9597AA]

7 track(s) accurately ripped
3 track(s) could not be verified as accurate

Some tracks could not be verified as accurate

End of status report

Exact Audio Copy V0.99 prebeta 5 from 4. May 2009

EAC extraction logfile from 17. April 2013, 17:55

Tangerine Dream / The Electronic Journey (Cyberjam Collection)

Used drive : ASUS DRW-22B2L Adapter: 0 ID: 0

Read mode : Secure
Utilize accurate stream : Yes
Defeat audio cache : Yes
Make use of C2 pointers : No

Read offset correction : 6
Overread into Lead-In and Lead-Out : No
Fill up missing offset samples with silence : Yes
Delete leading and trailing silent blocks : No
Null samples used in CRC calculations : Yes
Used interface : Native Win32 interface for Win NT & 2000

Used output format : Internal WAV Routines
Sample format : 44.100 Hz; 16 Bit; Stereo


TOC of the extracted CD

Track | Start | Length | Start sector | End sector
––––––––––––––––––––––––––––-
1 | 0:00.00 | 3:53.44 | 0 | 17518
2 | 3:53.44 | 10:07.53 | 17519 | 63096
3 | 14:01.22 | 8:47.18 | 63097 | 102639
4 | 22:48.40 | 4:31.66 | 102640 | 123030
5 | 27:20.31 | 4:41.01 | 123031 | 144106
6 | 32:01.32 | 5:29.24 | 144107 | 168805
7 | 37:30.56 | 9:07.00 | 168806 | 209830
8 | 46:37.56 | 5:34.67 | 209831 | 234947
9 | 52:12.48 | 7:30.72 | 234948 | 268769
10 | 59:43.45 | 5:45.46 | 268770 | 294690


Range status and errors

Selected range

Filename D:\EAC\Tangerine Dream - The Electronic Journey (CD 06).wav

Peak level 98.9 %
Range quality 100.0 %
Test CRC C3DCEC85
Copy CRC C3DCEC85
Copy OK

No errors occurred


AccurateRip summary

Track 1 accurately ripped (confidence 2) [35D69157]
Track 2 accurately ripped (confidence 2) [A30DC545]
Track 3 accurately ripped (confidence 2) [D00B1273]
Track 4 accurately ripped (confidence 2) [588897DD]
Track 5 accurately ripped (confidence 2) [F9084108]
Track 6 accurately ripped (confidence 2) [64734E75]
Track 7 accurately ripped (confidence 2) [6872F46D]
Track 8 accurately ripped (confidence 2) [0DAF1065]
Track 9 accurately ripped (confidence 2) [CC137FE0]
Track 10 accurately ripped (confidence 2) [877D0C6F]

All tracks accurately ripped

End of status report

Exact Audio Copy V0.99 prebeta 5 from 4. May 2009

EAC extraction logfile from 17. April 2013, 19:27

Tangerine Dream / The Electronic Journey (The Dante Song Collection From The Divine Comedy)

Used drive : ASUS DRW-22B2L Adapter: 0 ID: 0

Read mode : Secure
Utilize accurate stream : Yes
Defeat audio cache : Yes
Make use of C2 pointers : No

Read offset correction : 6
Overread into Lead-In and Lead-Out : No
Fill up missing offset samples with silence : Yes
Delete leading and trailing silent blocks : No
Null samples used in CRC calculations : Yes
Used interface : Native Win32 interface for Win NT & 2000

Used output format : Internal WAV Routines
Sample format : 44.100 Hz; 16 Bit; Stereo


TOC of the extracted CD

Track | Start | Length | Start sector | End sector
––––––––––––––––––––––––––––-
1 | 0:00.00 | 7:20.00 | 0 | 32999
2 | 7:20.00 | 6:35.13 | 33000 | 62637
3 | 13:55.13 | 3:51.13 | 62638 | 79975
4 | 17:46.26 | 6:50.00 | 79976 | 110725
5 | 24:36.26 | 4:36.55 | 110726 | 131480
6 | 29:13.06 | 2:41.27 | 131481 | 143582
7 | 31:54.33 | 4:43.17 | 143583 | 164824
8 | 36:37.50 | 5:44.00 | 164825 | 190624
9 | 42:21.50 | 6:03.00 | 190625 | 217849
10 | 48:24.50 | 5:37.68 | 217850 | 243192
11 | 54:02.43 | 4:08.31 | 243193 | 261823
12 | 58:10.74 | 5:33.66 | 261824 | 286864
13 | 63:44.65 | 4:26.73 | 286865 | 306887
14 | 68:11.63 | 5:28.39 | 306888 | 331526


Range status and errors

Selected range

Filename D:\EAC\Tangerine Dream - The Electronic Journey (CD 07).wav

Peak level 100.0 %
Range quality 100.0 %
Test CRC 2F5852CB
Copy CRC 2F5852CB
Copy OK

No errors occurred


AccurateRip summary

Track 1 accurately ripped (confidence 2) [5616C5F3]
Track 2 accurately ripped (confidence 2) [F1C0E2EE]
Track 3 accurately ripped (confidence 2) [4E4F3B2E]
Track 4 accurately ripped (confidence 2) [C8B5C5A7]
Track 5 accurately ripped (confidence 2) [E567BB08]
Track 6 accurately ripped (confidence 2) [28FE3567]
Track 7 accurately ripped (confidence 2) [324E91AB]
Track 8 accurately ripped (confidence 2) [B629559E]
Track 9 accurately ripped (confidence 2) [62E6E102]
Track 10 accurately ripped (confidence 2) [680441C2]
Track 11 accurately ripped (confidence 2) [9B8DF36E]
Track 12 accurately ripped (confidence 2) [1E177551]
Track 13 accurately ripped (confidence 2) [7D9B5EAA]
Track 14 accurately ripped (confidence 2) [F4CC51FA]

All tracks accurately ripped

End of status report

Exact Audio Copy V0.99 prebeta 5 from 4. May 2009

EAC extraction logfile from 17. April 2013, 20:34

Tangerine Dream / The Electronic Journey (Canyon Cazuma)

Used drive : ASUS DRW-22B2L Adapter: 0 ID: 0

Read mode : Secure
Utilize accurate stream : Yes
Defeat audio cache : Yes
Make use of C2 pointers : No

Read offset correction : 6
Overread into Lead-In and Lead-Out : No
Fill up missing offset samples with silence : Yes
Delete leading and trailing silent blocks : No
Null samples used in CRC calculations : Yes
Used interface : Native Win32 interface for Win NT & 2000

Used output format : Internal WAV Routines
Sample format : 44.100 Hz; 16 Bit; Stereo


TOC of the extracted CD

Track | Start | Length | Start sector | End sector
––––––––––––––––––––––––––––-
1 | 0:00.00 | 8:55.23 | 0 | 40147
2 | 8:55.23 | 5:07.50 | 40148 | 63222
3 | 14:02.73 | 5:06.26 | 63223 | 86198
4 | 19:09.24 | 5:53.32 | 86199 | 112705
5 | 25:02.56 | 2:07.04 | 112706 | 122234
6 | 27:09.60 | 5:08.02 | 122235 | 145336
7 | 32:17.62 | 5:07.00 | 145337 | 168361
8 | 37:24.62 | 5:45.69 | 168362 | 194305
9 | 43:10.56 | 5:26.66 | 194306 | 218821
10 | 48:37.47 | 5:41.11 | 218822 | 244407


Range status and errors

Selected range

Filename D:\EAC\Tangerine Dream - The Electronic Journey (CD 08).wav

Peak level 100.0 %
Range quality 100.0 %
Test CRC 7364C3C6
Copy CRC 7364C3C6
Copy OK

No errors occurred


AccurateRip summary

Track 1 accurately ripped (confidence 5) [922E073E]
Track 2 accurately ripped (confidence 5) [FDF932A1]
Track 3 accurately ripped (confidence 5) [E9D6921A]
Track 4 accurately ripped (confidence 5) [0C3FED50]
Track 5 accurately ripped (confidence 5) [9FF5199D]
Track 6 accurately ripped (confidence 5) [DEF64BE9]
Track 7 accurately ripped (confidence 5) [EA80EBB2]
Track 8 accurately ripped (confidence 5) [55EF5B9D]
Track 9 accurately ripped (confidence 5) [E161C921]
Track 10 accurately ripped (confidence 5) [CAF40527]

All tracks accurately ripped

End of status report

Exact Audio Copy V0.99 prebeta 5 from 4. May 2009

EAC extraction logfile from 17. April 2013, 21:34

Tangerine Dream / The Electronic Journey (Tangines Scales)

Used drive : ASUS DRW-22B2L Adapter: 0 ID: 0

Read mode : Secure
Utilize accurate stream : Yes
Defeat audio cache : Yes
Make use of C2 pointers : No

Read offset correction : 6
Overread into Lead-In and Lead-Out : No
Fill up missing offset samples with silence : Yes
Delete leading and trailing silent blocks : No
Null samples used in CRC calculations : Yes
Used interface : Native Win32 interface for Win NT & 2000

Used output format : Internal WAV Routines
Sample format : 44.100 Hz; 16 Bit; Stereo


TOC of the extracted CD

Track | Start | Length | Start sector | End sector
––––––––––––––––––––––––––––-
1 | 0:00.00 | 5:11.15 | 0 | 23339
2 | 5:11.15 | 6:00.56 | 23340 | 50395
3 | 11:11.71 | 8:13.28 | 50396 | 87398
4 | 19:25.24 | 4:58.26 | 87399 | 109774
5 | 24:23.50 | 9:00.30 | 109775 | 150304
6 | 33:24.05 | 8:42.57 | 150305 | 189511
7 | 42:06.62 | 5:18.12 | 189512 | 213373
8 | 47:24.74 | 4:45.27 | 213374 | 234775
9 | 52:10.26 | 3:41.55 | 234776 | 251405
10 | 55:52.06 | 5:49.11 | 251406 | 277591


Range status and errors

Selected range

Filename D:\EAC\Tangerine Dream - The Electronic Journey (CD 09).wav

Peak level 98.8 %
Range quality 100.0 %
Test CRC 0A3FDBEA
Copy CRC 0A3FDBEA
Copy OK

No errors occurred


AccurateRip summary

Track 1 accurately ripped (confidence 2) [3DAFA0B5]
Track 2 accurately ripped (confidence 2) [934B8813]
Track 3 accurately ripped (confidence 2) [1295FBFF]
Track 4 accurately ripped (confidence 2) [4B2273C2]
Track 5 accurately ripped (confidence 2) [459322D1]
Track 6 accurately ripped (confidence 2) [DF38E8AD]
Track 7 accurately ripped (confidence 2) [DA3F88FD]
Track 8 accurately ripped (confidence 2) [73E4F195]
Track 9 accurately ripped (confidence 2) [1DB0DADE]
Track 10 accurately ripped (confidence 2) [A461AA4F]

All tracks accurately ripped

End of status report

Exact Audio Copy V0.99 prebeta 5 from 4. May 2009

EAC extraction logfile from 17. April 2013, 22:28

Tangerine Dream / The Electronic Journey (The Independent Years)

Used drive : ASUS DRW-22B2L Adapter: 0 ID: 0

Read mode : Secure
Utilize accurate stream : Yes
Defeat audio cache : Yes
Make use of C2 pointers : No

Read offset correction : 6
Overread into Lead-In and Lead-Out : No
Fill up missing offset samples with silence : Yes
Delete leading and trailing silent blocks : No
Null samples used in CRC calculations : Yes
Used interface : Native Win32 interface for Win NT & 2000

Used output format : Internal WAV Routines
Sample format : 44.100 Hz; 16 Bit; Stereo


TOC of the extracted CD

Track | Start | Length | Start sector | End sector
––––––––––––––––––––––––––––-
1 | 0:00.00 | 4:09.03 | 0 | 18677
2 | 4:09.03 | 5:50.53 | 18678 | 44980
3 | 9:59.56 | 4:41.37 | 44981 | 66092
4 | 14:41.18 | 4:47.58 | 66093 | 87675
5 | 19:29.01 | 8:19.60 | 87676 | 125160
6 | 27:48.61 | 5:24.62 | 125161 | 149522
7 | 33:13.48 | 4:12.17 | 149523 | 168439
8 | 37:25.65 | 5:59.64 | 168440 | 195428
9 | 43:25.54 | 5:05.68 | 195429 | 218371
10 | 48:31.47 | 6:58.47 | 218372 | 249768
11 | 55:30.19 | 5:23.14 | 249769 | 274007
12 | 60:53.33 | 3:58.29 | 274008 | 291886
13 | 64:51.62 | 8:13.51 | 291887 | 328912


Range status and errors

Selected range

Filename D:\EAC\Tangerine Dream - The Electronic Journey (CD 10).wav

Peak level 100.0 %
Range quality 100.0 %
Test CRC CFBBB1BB
Copy CRC CFBBB1BB
Copy OK

No errors occurred


AccurateRip summary

Track 1 accurately ripped (confidence 2) [4955663D]
Track 2 accurately ripped (confidence 2) [AAB706C3]
Track 3 accurately ripped (confidence 2) [CAD16B78]
Track 4 accurately ripped (confidence 2) [8023A303]
Track 5 accurately ripped (confidence 2) [634BF78A]
Track 6 accurately ripped (confidence 2) [E81D7A07]
Track 7 accurately ripped (confidence 2) [A3233780]
Track 8 accurately ripped (confidence 2) [9D721E8A]
Track 9 accurately ripped (confidence 2) [C2DB3269]
Track 10 accurately ripped (confidence 2) [8233E386]
Track 11 accurately ripped (confidence 2) [8F34A57F]
Track 12 accurately ripped (confidence 2) [B6371D2C]
Track 13 accurately ripped (confidence 2) [6F2ED42C]

All tracks accurately ripped

End of status report

Thanks to x777x