Tags
Language
Tags

Tangerine Dream - The Hollywood Years Vol. 1 (1998)

Posted By: gribovar
Tangerine Dream - The Hollywood Years Vol. 1 (1998)

Tangerine Dream - The Hollywood Years Vol. 1 (1998)
EAC Rip | APE (image+.cue+log) - 340 MB | MP3 CBR 320 kbps (LAME 3.93) - 163 MB | Covers included
Genre: Progressive Electronic, Berlin School | RAR 3% Rec. | Label: TDI Music (TDI CD007)

Tangerine Dream has composed scores for dozens of films. The process of creating for the cinema always leaves the performer with loads of unused material. The Hollywood Years, Vol. 1 features unused soundtrack material composed and performed by Edgar Froese and Jerome Froese. (While they are credited with composing and performing, some of the material sounds very familiar, like it is from the lineup with Christopher Franke and Paul Haslinger.) Tangerine Dream's proliferation in this arena has yielded some excellent music that can stand on its own. It also has yielded, understandably, some uneven pieces and even some absolute losers. The Froeses handpicked this material and it is very good-to-excellent e-music. These pieces are able to stand alone without the movies to enhance them. There are no references to the movies. Indeed, some of the movies were never made and some of the soundtracks were rejected out of hand. Astute listeners will hear some familiar refrains and codas. This is a good representation of the versatility of Froese and Froese. The short tracks are catchy, with nice hooks and riffs. For Tangerine Dream fans, this is essential. For more casual collectors, it might be interesting.
Tracklist:
01. Q-Time
02. Cat And Snowman
03. Goldhunter
04. Law Paradiso
05. La Petite Rue Noire
06. Propeller Beach
07. Autumn In Sonoma
08. Chamber Of Hope
09. The Quiet Gambler
10. The Principle Source
11. Labeo
12. Escape From Shadowland
13. Chronos Mile
14. J.S. Bach Sonata
15. Fairfax

Total time: 01:08:46

Exact Audio Copy V0.99 prebeta 5 from 4. May 2009

EAC extraction logfile from 21. February 2010, 0:26

Tangerine Dream / The Hollywood Years Vol. 1

Used drive : ASUS DRW-1814BL Adapter: 0 ID: 0

Read mode : Secure
Utilize accurate stream : Yes
Defeat audio cache : Yes
Make use of C2 pointers : No

Read offset correction : 6
Overread into Lead-In and Lead-Out : No
Fill up missing offset samples with silence : Yes
Delete leading and trailing silent blocks : No
Null samples used in CRC calculations : Yes
Used interface : Native Win32 interface for Win NT & 2000

Used output format : Internal WAV Routines
Sample format : 44.100 Hz; 16 Bit; Stereo


TOC of the extracted CD

Track | Start | Length | Start sector | End sector
––––––––––––––––––––––––––––-
1 | 0:00.00 | 5:10.61 | 0 | 23310
2 | 5:10.61 | 3:52.61 | 23311 | 40771
3 | 9:03.47 | 4:52.43 | 40772 | 62714
4 | 13:56.15 | 5:02.44 | 62715 | 85408
5 | 18:58.59 | 4:06.02 | 85409 | 103860
6 | 23:04.61 | 5:31.55 | 103861 | 128740
7 | 28:36.41 | 3:15.20 | 128741 | 143385
8 | 31:51.61 | 4:38.69 | 143386 | 164304
9 | 36:30.55 | 4:12.17 | 164305 | 183221
10 | 40:42.72 | 5:20.22 | 183222 | 207243
11 | 46:03.19 | 5:18.26 | 207244 | 231119
12 | 51:21.45 | 4:23.40 | 231120 | 250884
13 | 55:45.10 | 5:57.12 | 250885 | 277671
14 | 61:42.22 | 2:53.36 | 277672 | 290682
15 | 64:35.58 | 4:10.16 | 290683 | 309448


Range status and errors

Selected range

Filename D:\EAC\Tangerine Dream - The Hollywood Years Vol. 1.wav

Peak level 100.0 %
Range quality 100.0 %
Test CRC 85B5CA74
Copy CRC 85B5CA74
Copy OK

No errors occurred


AccurateRip summary

Track 1 accurately ripped (confidence 5) [5F1E915A]
Track 2 accurately ripped (confidence 5) [F780132A]
Track 3 accurately ripped (confidence 5) [18E45301]
Track 4 cannot be verified as accurate (confidence 5) [5A2D4788], AccurateRip returned [60C74788]
Track 5 accurately ripped (confidence 5) [B50AC76A]
Track 6 accurately ripped (confidence 5) [B8EF4ECF]
Track 7 accurately ripped (confidence 5) [B64D73FF]
Track 8 accurately ripped (confidence 5) [CDACAD37]
Track 9 accurately ripped (confidence 5) [337AA7D1]
Track 10 cannot be verified as accurate (confidence 5) [38CA2D66], AccurateRip returned [31EADC67]
Track 11 cannot be verified as accurate (confidence 5) [5B67F0AC], AccurateRip returned [B33539B0]
Track 12 accurately ripped (confidence 5) [BB1A7CEB]
Track 13 accurately ripped (confidence 5) [3F40493E]
Track 14 accurately ripped (confidence 5) [80AA4E3E]
Track 15 accurately ripped (confidence 6) [5367CAAE]

12 track(s) accurately ripped
3 track(s) could not be verified as accurate

Some tracks could not be verified as accurate

End of status report

[CUETools log; Date: 24.10.2017 12:52:05; Version: 2.1.4]
[CTDB TOCID: jHkLVYCUUrm3ZnzF69QMe8lL.0I-] found.
Track | CTDB Status
1 | (13/13) Accurately ripped
2 | (13/13) Accurately ripped
3 | (13/13) Accurately ripped
4 | (12/13) Differs in 2 samples @00:30:20
5 | (13/13) Accurately ripped
6 | (13/13) Accurately ripped
7 | (13/13) Accurately ripped
8 | (13/13) Accurately ripped
9 | (12/13) Accurately ripped
10 | (12/13) Differs in 8 samples @01:38:15,05:00:45
11 | (12/13) Differs in 4 samples @00:05:03
12 | (12/13) Accurately ripped
13 | (12/13) Accurately ripped
14 | (12/13) Accurately ripped
15 | (12/13) Accurately ripped
[AccurateRip ID: 00263077-01b079bc-d6101d0f] found.
Track [ CRC | V2 ] Status
01 [5f1e915a|9550a857] (11+08/19) Accurately ripped
02 [f780132a|e58bfe69] (11+08/19) Accurately ripped
03 [18e45301|b3f46677] (11+08/19) Accurately ripped
04 [5a2d4788|a384de58] (00+00/19) No match
05 [b50ac76a|1cd32515] (11+08/19) Accurately ripped
06 [b8ef4ecf|fe79e6bd] (11+08/19) Accurately ripped
07 [b64d73ff|28ad918b] (11+08/19) Accurately ripped
08 [cdacad37|d515f192] (11+08/19) Accurately ripped
09 [337aa7d1|f3088b37] (11+08/19) Accurately ripped
10 [38ca2d66|f94ab53f] (00+00/19) No match
11 [5b67f0ac|b4bbc4c4] (00+00/19) No match
12 [bb1a7ceb|aa6f15c1] (11+08/19) Accurately ripped
13 [3f40493e|e79f1fc8] (11+08/19) Accurately ripped
14 [80aa4e3e|fbaabfda] (11+08/19) Accurately ripped
15 [5367caae|f97f3c1b] (12+08/20) Accurately ripped

Track Peak [ CRC32 ] [W/O NULL] [ LOG ]
– 100,0 [85B5CA74] [39DAD5A4] CRC32
01 100,0 [C18B99FC] [0792F2A6]
02 99,0 [A74FC2F4] [3536D2C3]
03 98,6 [F1113D2E] [9AB6CE09]
04 98,8 [EC3322FE] [7698F07C]
05 98,2 [ABD697B8] [DB1070A2]
06 100,0 [D407B45B] [0D9CFDBE]
07 99,5 [7A09D9C1] [E1991679]
08 100,0 [A31EFD2F] [0A9B9499]
09 97,9 [F3E159A9] [ED5F8625]
10 100,0 [873406DE] [2A95410A]
11 97,7 [01676712] [297D03FB]
12 100,0 [DB6DA004] [69FD835F]
13 99,6 [F06FE195] [FF7BA70C]
14 100,0 [AB4C103F] [0CBE7AEF]
15 100,0 [904DF4DA] [17136F16]

Thanks to the original releaser