Tags
Language
Tags

Tangerine Dream - The Hollywood Years Vol. 2 (1998)

Posted By: gribovar
Tangerine Dream - The Hollywood Years Vol. 2 (1998)

Tangerine Dream - The Hollywood Years Vol. 2 (1998)
EAC Rip | APE (image+.cue+log) - 407 MB | MP3 CBR 320 kbps (LAME 3.93) - 176 MB | Covers included
Genre: Progressive Electronic, Berlin School | RAR 3% Rec. | Label: TDI Music (TDI CD008)

The Hollywood Years Vol. 2 is the second (and last) issue of 'The Hollywood Years' series, intended to feature "TD's leftover scores, songs and sequences". The material on this CD consists of previously unreleased material with the exceptions of "City Monk", that is featured as Ulan-Ude on the soundtrack album Transsiberia, and "Token From Birdland" which appears in a heavily remixed version under the same title on Ambient Monkeys. The track "Riding The Lizard Overland" is actually the end titles of the film Red Heat from 1986. The soundtrack of this film has never been released, though in summer 1997 TD had announced to release it in early 1998 on their own TDI label. With "Rose Of Babylon", this album features one of the few Tangerine Dream vocal tracks. The lyrics have been written and sung by Vicki McClure, known as the singer of the Olympic Summer Games hymn in Los Angeles.
Tracklist:
01. South Camora
02. Velvet Sun
03. Midas Touch
04. City Monk
05. Lava Levin
06. Cool Ma Bell
07. Dare To Change
08. Hall Of Mirrors
09. Token From Birdland
10. In The Distant Shore
11. 3rd Angels Gate
12. Silver Moon Lake
13. Riding The Lizard Overland
14. Walking With A Mandarin
15. Rose Of Babylon

Total time: 01:13:50

Exact Audio Copy V0.99 prebeta 5 from 4. May 2009

EAC extraction logfile from 25. December 2009, 0:37

Tangerine Dream / The Hollywood Years Vol. 2

Used drive : ASUS DRW-1814BL Adapter: 0 ID: 0

Read mode : Secure
Utilize accurate stream : Yes
Defeat audio cache : Yes
Make use of C2 pointers : No

Read offset correction : 6
Overread into Lead-In and Lead-Out : No
Fill up missing offset samples with silence : Yes
Delete leading and trailing silent blocks : No
Null samples used in CRC calculations : Yes
Used interface : Native Win32 interface for Win NT & 2000

Used output format : Internal WAV Routines
Sample format : 44.100 Hz; 16 Bit; Stereo


TOC of the extracted CD

Track | Start | Length | Start sector | End sector
––––––––––––––––––––––––––––-
1 | 0:00.00 | 4:05.23 | 0 | 18397
2 | 4:05.23 | 6:09.51 | 18398 | 46123
3 | 10:14.74 | 6:10.71 | 46124 | 73944
4 | 16:25.70 | 4:28.37 | 73945 | 94081
5 | 20:54.32 | 4:31.73 | 94082 | 114479
6 | 25:26.30 | 5:06.28 | 114480 | 137457
7 | 30:32.58 | 4:17.33 | 137458 | 156765
8 | 34:50.16 | 3:46.64 | 156766 | 173779
9 | 38:37.05 | 8:09.48 | 173780 | 210502
10 | 46:46.53 | 4:15.58 | 210503 | 229685
11 | 51:02.36 | 2:57.68 | 229686 | 243028
12 | 54:00.29 | 3:38.39 | 243029 | 259417
13 | 57:38.68 | 3:42.47 | 259418 | 276114
14 | 61:21.40 | 7:24.54 | 276115 | 309468
15 | 68:46.19 | 5:03.47 | 309469 | 332240


Range status and errors

Selected range

Filename D:\EAC\Tangerine Dream - The Hollywood Years Vol. 2.wav

Peak level 100.0 %
Range quality 100.0 %
Copy CRC 0F9B72DD
Copy OK

No errors occurred


AccurateRip summary

Track 1 accurately ripped (confidence 3) [3F5FD3D8]
Track 2 accurately ripped (confidence 3) [32C99517]
Track 3 accurately ripped (confidence 3) [48449AB1]
Track 4 accurately ripped (confidence 3) [38258A6A]
Track 5 accurately ripped (confidence 3) [521C3359]
Track 6 accurately ripped (confidence 3) [4CAA1312]
Track 7 accurately ripped (confidence 3) [DB3C43F6]
Track 8 accurately ripped (confidence 3) [889B192D]
Track 9 accurately ripped (confidence 3) [D426D3DF]
Track 10 accurately ripped (confidence 3) [FD142FB8]
Track 11 accurately ripped (confidence 3) [8DC43BCD]
Track 12 accurately ripped (confidence 3) [37A8BE42]
Track 13 accurately ripped (confidence 3) [146E2C3F]
Track 14 accurately ripped (confidence 3) [DD6AD242]
Track 15 accurately ripped (confidence 3) [99B2B335]

All tracks accurately ripped

End of status report

[CUETools log; Date: 24.10.2017 12:54:23; Version: 2.1.4]
[CTDB TOCID: yQ2r4p74VTzcuvXFy84isFxQCM8-] found.
Track | CTDB Status
1 | (14/14) Accurately ripped
2 | (14/14) Accurately ripped
3 | (14/14) Accurately ripped
4 | (14/14) Accurately ripped
5 | (14/14) Accurately ripped
6 | (14/14) Accurately ripped
7 | (14/14) Accurately ripped
8 | (14/14) Accurately ripped
9 | (14/14) Accurately ripped
10 | (14/14) Accurately ripped
11 | (14/14) Accurately ripped
12 | (14/14) Accurately ripped
13 | (14/14) Accurately ripped
14 | (14/14) Accurately ripped
15 | (14/14) Accurately ripped
[AccurateRip ID: 0028d326-01cc1704-d8114d0f] found.
Track [ CRC | V2 ] Status
01 [3f5fd3d8|c55bcdec] (10+06/16) Accurately ripped
02 [32c99517|368f0758] (10+06/16) Accurately ripped
03 [48449ab1|e7a7e254] (10+06/16) Accurately ripped
04 [38258a6a|16591c97] (10+06/16) Accurately ripped
05 [521c3359|ece96224] (10+06/16) Accurately ripped
06 [4caa1312|56dfeb81] (10+06/16) Accurately ripped
07 [db3c43f6|8d1a2342] (10+06/16) Accurately ripped
08 [889b192d|eb167b52] (10+06/16) Accurately ripped
09 [d426d3df|d7a53979] (10+06/16) Accurately ripped
10 [fd142fb8|38710ca5] (10+06/16) Accurately ripped
11 [8dc43bcd|cbda6f82] (10+06/16) Accurately ripped
12 [37a8be42|e5bf94ec] (10+06/16) Accurately ripped
13 [146e2c3f|3804e259] (10+06/16) Accurately ripped
14 [dd6ad242|69d96500] (10+06/16) Accurately ripped
15 [99b2b335|2a6ca7e8] (10+05/15) Accurately ripped

Track Peak [ CRC32 ] [W/O NULL] [ LOG ]
– 100,0 [0F9B72DD] [B4E23EED] CRC32
01 100,0 [A04CD214] [AFB6B02E]
02 100,0 [80896EE3] [35D8095D]
03 100,0 [A432D8CE] [19084284]
04 100,0 [E1E064ED] [F82C2C1A]
05 98,9 [42D3CB5D] [2A236C6A]
06 100,0 [BA69CDF2] [19F9D499]
07 100,0 [F16D9A98] [6BA4F8F0]
08 100,0 [2B3341E3] [2FE7BA14]
09 100,0 [690FC941] [CE713F47]
10 100,0 [7E120D37] [64AC2413]
11 98,3 [D2995864] [30567802]
12 100,0 [62DDBF05] [2ABBA07E]
13 100,0 [6DF73B12] [57B57841]
14 100,0 [466B03D6] [0185123F]
15 100,0 [7ACF7A4A] [AED3CFE1]

Thanks to the original releaser