Tags
Language
Tags

Tangerine Dream - The London Eye Concert (2010) (Repost)

Posted By: gribovar
Tangerine Dream - The London Eye Concert (2010) (Repost)

Tangerine Dream - The London Eye Concert (2010)
EAC Rip | FLAC (image+.cue+log) - 1,07 GB | MP3 CBR 320 kbps (LAME 3.93) - 401 MB | Covers - 88 MB
Genre: Electronic, Berlin School/New Age | RAR 3% Rec. | Label: Purple Pyramid (CPL 9302)

London's and TD's soundscapes are so unique like a score to a movie. The British influence in TD's music within their 40 years' development is bigger and more intensive than most people may have recognised. For those who couldn't join the concert or like to relive it again: here's the full cut of their beat show at the Forum in Kentishtown on Nov. 1st 2008. A kaleidoscope beginning with the new title Trauma and ending with the breathtaking live interpretation of the TD classic Cloudburst Flight.
CD 1 Tracklist:
01. Trauma
02. Serpent Magique
03. Terra Coda
04. No Man's Land
05. Sally's Garden
06. Hyperborea 2008
07. Sphinx Lightning Part 1
08. Carmel California
09. Leviathan
10. Wisdom And Tragedy

Total time: 01:02:24

CD 2 Tracklist:
01. Blue Bridge
02. Fire On The Mountain
03. Leaving The Masters For Good
04. Cinnamon Road
05. Hunter Shot By A Yellow Rabbit
06. The Last Soldier
07. Wu Wei
08. Sphinx Lightning Part 2
09. Going West
10. Point Of No Return
11. Loved By The Sun

Total time: 01:06:31

CD 3 Tracklist:
01. Love On A Real Train 2008
02. Streethawk
03. Sadness Of Echnaton Losing The World Child
04. One Night In Space
05. Tomorrow Never Knows
06. Cloudburst Flight 2008
07. Absage

Total time: 41:37

Exact Audio Copy V0.99 prebeta 5 from 4. May 2009

EAC extraction logfile from 22. January 2011, 21:31

Tangerine Dream / The London Eye Concert

Used drive : ASUS DRW-1814BL Adapter: 0 ID: 0

Read mode : Secure
Utilize accurate stream : Yes
Defeat audio cache : Yes
Make use of C2 pointers : No

Read offset correction : 6
Overread into Lead-In and Lead-Out : No
Fill up missing offset samples with silence : Yes
Delete leading and trailing silent blocks : No
Null samples used in CRC calculations : Yes
Used interface : Native Win32 interface for Win NT & 2000

Used output format : Internal WAV Routines
Sample format : 44.100 Hz; 16 Bit; Stereo


TOC of the extracted CD

Track | Start | Length | Start sector | End sector
––––––––––––––––––––––––––––-
1 | 0:00.00 | 9:25.26 | 0 | 42400
2 | 9:25.26 | 6:20.35 | 42401 | 70935
3 | 15:45.61 | 1:17.53 | 70936 | 76763
4 | 17:03.39 | 5:11.37 | 76764 | 100125
5 | 22:15.01 | 4:23.53 | 100126 | 119903
6 | 26:38.54 | 5:21.17 | 119904 | 143995
7 | 31:59.71 | 8:03.16 | 143996 | 180236
8 | 40:03.12 | 7:27.03 | 180237 | 213764
9 | 47:30.15 | 7:16.07 | 213765 | 246471
10 | 54:46.22 | 7:37.63 | 246472 | 280809


Range status and errors

Selected range

Filename D:\EAC\Tangerine Dream - The London Eye Concert (CD 1).wav

Peak level 85.8 %
Range quality 100.0 %
Test CRC A3CF691D
Copy CRC A3CF691D
Copy OK

No errors occurred


AccurateRip summary

Track 1 cannot be verified as accurate (confidence 3) [A4A8AA36], AccurateRip returned [E152B68A]
Track 2 cannot be verified as accurate (confidence 3) [92A6AA70], AccurateRip returned [68A8B4AF]
Track 3 cannot be verified as accurate (confidence 3) [F75F7415], AccurateRip returned [899280A6]
Track 4 cannot be verified as accurate (confidence 3) [7113A587], AccurateRip returned [0F272200]
Track 5 cannot be verified as accurate (confidence 3) [CA105701], AccurateRip returned [31859018]
Track 6 cannot be verified as accurate (confidence 3) [BD80F19C], AccurateRip returned [B81A6302]
Track 7 cannot be verified as accurate (confidence 2) [BF00D2A9], AccurateRip returned [586667B9]
Track 8 cannot be verified as accurate (confidence 3) [22A0075C], AccurateRip returned [ED34117D]
Track 9 cannot be verified as accurate (confidence 3) [A4DA49C3], AccurateRip returned [9E0BBC6A]
Track 10 cannot be verified as accurate (confidence 3) [5E07D09E], AccurateRip returned [0041EBE2]

No tracks could be verified as accurate
You may have a different pressing from the one(s) in the database

End of status report

[CUETools log; Date: 03.06.2016 20:23:41; Version: 2.1.4]
[CTDB TOCID: HflSNyXX.7G8bi2jC0rstfoGY4o-] found.
Track | CTDB Status
1 | (4/4) Accurately ripped
2 | (4/4) Accurately ripped
3 | (4/4) Accurately ripped
4 | (4/4) Accurately ripped
5 | (4/4) Accurately ripped
6 | (4/4) Accurately ripped
7 | (4/4) Accurately ripped
8 | (3/4) Accurately ripped
9 | (3/4) Accurately ripped
10 | (3/4) Accurately ripped
[AccurateRip ID: 00168353-00b352a8-830ea00a] found.
Track [ CRC | V2 ] Status
01 [a4a8aa36|20d6371f] (2+3/9) Accurately ripped
02 [92a6aa70|34bcfd46] (2+3/9) Accurately ripped
03 [f75f7415|ab75e3a3] (2+3/9) Accurately ripped
04 [7113a587|023a248e] (2+3/9) Accurately ripped
05 [ca105701|93b71e34] (2+3/9) Accurately ripped
06 [bd80f19c|0a889aa8] (2+3/9) Accurately ripped
07 [bf00d2a9|a473b27b] (2+3/8) Accurately ripped
08 [22a0075c|eff16d39] (2+3/9) Accurately ripped
09 [a4da49c3|e41f5b07] (2+3/9) Accurately ripped
10 [5e07d09e|a99fc130] (2+3/9) Accurately ripped
Offsetted by 18:
01 [e152b68a] (4/9) Accurately ripped
02 [68a8b4af] (4/9) Accurately ripped
03 [899280a6] (4/9) Accurately ripped
04 [0f272200] (4/9) Accurately ripped
05 [31859018] (4/9) Accurately ripped
06 [b81a6302] (4/9) Accurately ripped
07 [586667b9] (3/8) Accurately ripped
08 [ed34117d] (4/9) Accurately ripped
09 [9e0bbc6a] (4/9) Accurately ripped
10 [0041ebe2] (4/9) Accurately ripped

Track Peak [ CRC32 ] [W/O NULL] [ LOG ]
– 85,8 [A3CF691D] [D1DC0666] CRC32
01 74,9 [8AA063A9] [F5B09B42]
02 75,8 [878BB498] [9A1B5B00]
03 59,0 [166E88E1] [7028E1D3]
04 78,6 [797B284F] [03614595]
05 73,5 [172DF36F] [07359A46]
06 85,8 [C723E541] [802D3525]
07 76,9 [462F3503] [AA854F8E]
08 80,9 [7880F969] [1DB67DD0]
09 82,2 [233356B9] [011485CF]
10 83,5 [629C407F] [0179345D]

Exact Audio Copy V0.99 prebeta 5 from 4. May 2009

EAC extraction logfile from 22. January 2011, 21:11

Tangerine Dream / The London Eye Concert

Used drive : ASUS DRW-1814BL Adapter: 0 ID: 0

Read mode : Secure
Utilize accurate stream : Yes
Defeat audio cache : Yes
Make use of C2 pointers : No

Read offset correction : 6
Overread into Lead-In and Lead-Out : No
Fill up missing offset samples with silence : Yes
Delete leading and trailing silent blocks : No
Null samples used in CRC calculations : Yes
Used interface : Native Win32 interface for Win NT & 2000

Used output format : Internal WAV Routines
Sample format : 44.100 Hz; 16 Bit; Stereo


TOC of the extracted CD

Track | Start | Length | Start sector | End sector
––––––––––––––––––––––––––––-
1 | 0:00.00 | 3:35.33 | 0 | 16157
2 | 3:35.33 | 7:33.41 | 16158 | 50173
3 | 11:08.74 | 2:15.71 | 50174 | 60369
4 | 13:24.70 | 4:14.35 | 60370 | 79454
5 | 17:39.30 | 10:27.72 | 79455 | 126551
6 | 28:07.27 | 9:30.43 | 126552 | 169344
7 | 37:37.70 | 5:04.37 | 169345 | 192181
8 | 42:42.32 | 6:44.02 | 192182 | 222483
9 | 49:26.34 | 4:49.50 | 222484 | 244208
10 | 54:16.09 | 5:46.55 | 244209 | 270213
11 | 60:02.64 | 6:28.17 | 270214 | 299330


Range status and errors

Selected range

Filename D:\EAC\Tangerine Dream - The London Eye Concert (CD 2).wav

Peak level 95.2 %
Range quality 99.9 %
Test CRC ECF10F17
Copy CRC ECF10F17
Copy OK

No errors occurred


AccurateRip summary

Track 1 cannot be verified as accurate (confidence 3) [01F7A2EF], AccurateRip returned [6CB3D9F8]
Track 2 cannot be verified as accurate (confidence 3) [3DAE1088], AccurateRip returned [89A52A5F]
Track 3 cannot be verified as accurate (confidence 3) [6972503E], AccurateRip returned [B01B0881]
Track 4 cannot be verified as accurate (confidence 3) [367D2688], AccurateRip returned [DFDB3DB4]
Track 5 cannot be verified as accurate (confidence 3) [4ECEA16C], AccurateRip returned [24552652]
Track 6 cannot be verified as accurate (confidence 3) [C9EEC584], AccurateRip returned [B074105F]
Track 7 cannot be verified as accurate (confidence 3) [EE314BD9], AccurateRip returned [189BF157]
Track 8 cannot be verified as accurate (confidence 3) [68034905], AccurateRip returned [5898F822]
Track 9 cannot be verified as accurate (confidence 3) [C63CB10B], AccurateRip returned [0B9B0378]
Track 10 cannot be verified as accurate (confidence 3) [8DD8A3FE], AccurateRip returned [E238A636]
Track 11 cannot be verified as accurate (confidence 3) [233AFFC6], AccurateRip returned [BD80DBAC]

No tracks could be verified as accurate
You may have a different pressing from the one(s) in the database

End of status report

[CUETools log; Date: 03.06.2016 20:25:05; Version: 2.1.4]
[CTDB TOCID: skKUF.C6vIvHHNXXWG0tgGG400M-] found.
Track | CTDB Status
1 | (4/4) Accurately ripped
2 | (4/4) Accurately ripped
3 | (4/4) Accurately ripped
4 | (4/4) Accurately ripped
5 | (4/4) Accurately ripped
6 | (4/4) Accurately ripped
7 | (4/4) Accurately ripped
8 | (4/4) Accurately ripped
9 | (4/4) Accurately ripped
10 | (4/4) Accurately ripped
11 | (4/4) Accurately ripped
[AccurateRip ID: 001a67aa-00e9a6a5-a20f970b] found.
Track [ CRC | V2 ] Status
01 [01f7a2ef|4d26f1ad] (2+3/9) Accurately ripped
02 [3dae1088|3b9f8493] (2+3/9) Accurately ripped
03 [6972503e|df9d7a02] (2+3/9) Accurately ripped
04 [367d2688|845cf5a8] (2+3/9) Accurately ripped
05 [4ecea16c|67d4e879] (2+3/9) Accurately ripped
06 [c9eec584|a5c30825] (2+3/9) Accurately ripped
07 [ee314bd9|7f7209d0] (2+3/9) Accurately ripped
08 [68034905|60aabc9a] (2+3/9) Accurately ripped
09 [c63cb10b|338407a3] (2+3/9) Accurately ripped
10 [8dd8a3fe|5f1bc32d] (2+3/9) Accurately ripped
11 [233affc6|c8549eba] (2+3/9) Accurately ripped
Offsetted by 655:
01 [6cb3d9f8] (4/9) Accurately ripped
02 [89a52a5f] (4/9) Accurately ripped
03 [b01b0881] (4/9) Accurately ripped
04 [dfdb3db4] (4/9) Accurately ripped
05 [24552652] (4/9) Accurately ripped
06 [b074105f] (4/9) Accurately ripped
07 [189bf157] (4/9) Accurately ripped
08 [5898f822] (4/9) Accurately ripped
09 [0b9b0378] (4/9) Accurately ripped
10 [e238a636] (4/9) Accurately ripped
11 [bd80dbac] (4/9) Accurately ripped

Track Peak [ CRC32 ] [W/O NULL] [ LOG ]
– 95,2 [ECF10F17] [8984BB20] CRC32
01 81,6 [8FDC508D] [A06B88B1]
02 95,0 [29003464] [341432B5]
03 78,7 [C46A7C23] [4A40030A]
04 95,2 [84663AAC] [73273138]
05 87,4 [8BBF9B0B] [B3E349A8]
06 85,2 [88007728] [AA859040]
07 81,8 [BFC0C188] [864B713C]
08 93,8 [ED2AEA16] [8B8F6B65]
09 68,5 [A2D8F96C] [98E3E59F]
10 83,0 [B71DC05C] [05AC43CD]
11 86,7 [06B8F654] [515CE180]

Exact Audio Copy V0.99 prebeta 5 from 4. May 2009

EAC extraction logfile from 22. January 2011, 21:52

Tangerine Dream / The London Eye Concert

Used drive : ASUS DRW-1814BL Adapter: 0 ID: 0

Read mode : Secure
Utilize accurate stream : Yes
Defeat audio cache : Yes
Make use of C2 pointers : No

Read offset correction : 6
Overread into Lead-In and Lead-Out : No
Fill up missing offset samples with silence : Yes
Delete leading and trailing silent blocks : No
Null samples used in CRC calculations : Yes
Used interface : Native Win32 interface for Win NT & 2000

Used output format : Internal WAV Routines
Sample format : 44.100 Hz; 16 Bit; Stereo


TOC of the extracted CD

Track | Start | Length | Start sector | End sector
––––––––––––––––––––––––––––-
1 | 0:00.00 | 7:28.27 | 0 | 33626
2 | 7:28.27 | 3:27.24 | 33627 | 49175
3 | 10:55.51 | 6:02.67 | 49176 | 76392
4 | 16:58.43 | 7:54.69 | 76393 | 112011
5 | 24:53.37 | 5:32.18 | 112012 | 136929
6 | 30:25.55 | 8:31.10 | 136930 | 175264
7 | 38:56.65 | 2:40.24 | 175265 | 187288


Range status and errors

Selected range

Filename D:\EAC\Tangerine Dream - The London Eye Concert (CD 3).wav

Peak level 98.6 %
Range quality 100.0 %
Test CRC E617B534
Copy CRC E617B534
Copy OK

No errors occurred


AccurateRip summary

Track 1 cannot be verified as accurate (confidence 3) [920C573A], AccurateRip returned [BED36A32]
Track 2 cannot be verified as accurate (confidence 3) [F52DEE0E], AccurateRip returned [75FC9AA2]
Track 3 cannot be verified as accurate (confidence 3) [95EA0DA7], AccurateRip returned [753BD809]
Track 4 cannot be verified as accurate (confidence 3) [2B07D3B1], AccurateRip returned [3C3C24A0]
Track 5 cannot be verified as accurate (confidence 3) [F23CE873], AccurateRip returned [9B490A9D]
Track 6 cannot be verified as accurate (confidence 2) [186BCB33], AccurateRip returned [4CD53457]
Track 7 cannot be verified as accurate (confidence 2) [9E8898E7], AccurateRip returned [252E4FDB]

No tracks could be verified as accurate
You may have a different pressing from the one(s) in the database

End of status report

[CUETools log; Date: 03.06.2016 20:25:29; Version: 2.1.4]
[CTDB TOCID: VYW6cKhZEzP.WEAIP3f0g.iEInY-] found.
Track | CTDB Status
1 | (4/4) Accurately ripped
2 | (4/4) Accurately ripped
3 | (4/4) Accurately ripped
4 | (4/4) Accurately ripped
5 | (4/4) Accurately ripped
6 | (4/4) Accurately ripped
7 | (4/4) Accurately ripped
[AccurateRip ID: 000bc284-00469ada-5509c107] found.
Track [ CRC | V2 ] Status
01 [920c573a|829ab098] (2+3/9) Accurately ripped
02 [f52dee0e|cb8c27ff] (2+3/9) Accurately ripped
03 [95ea0da7|91b5cf53] (2+3/8) Accurately ripped
04 [2b07d3b1|39b3a262] (2+3/9) Accurately ripped
05 [f23ce873|7e33628c] (2+3/9) Accurately ripped
06 [186bcb33|8c01f2b7] (2+3/8) Accurately ripped
07 [9e8898e7|de8dc540] (2+3/8) Accurately ripped
Offsetted by 18:
01 [bed36a32] (4/9) Accurately ripped
02 [75fc9aa2] (4/9) Accurately ripped
03 [753bd809] (3/8) Accurately ripped
04 [3c3c24a0] (4/9) Accurately ripped
05 [9b490a9d] (4/9) Accurately ripped
06 [4cd53457] (3/8) Accurately ripped
07 [252e4fdb] (3/8) Accurately ripped

Track Peak [ CRC32 ] [W/O NULL] [ LOG ]
– 98,6 [E617B534] [DD147294] CRC32
01 89,2 [27690594] [B10D802C]
02 78,6 [927F9B8D] [DA056731]
03 70,0 [020B737A] [E14A17DB]
04 90,8 [390DC86A] [62A1F232]
05 84,3 [4731B779] [29DAA62E]
06 98,6 [A714D85B] [3F05B154]
07 61,1 [191A4E40] [94F9B601]

Thanks to x777x