Subcategories

Tangerine Dream - The Official Bootleg Series Vol.1 [4CD Box Set] (2015)

Posted By: gribovar
Tangerine Dream - The Official Bootleg Series Vol.1 [4CD Box Set] (2015)

Tangerine Dream - The Official Bootleg Series Vol.1 [4CD Box Set] (2015)
EAC Rip | FLAC (tracks+.cue+log) - 823 MB | Covers - 28 MB
Genre: Progressive Electronic, Berlin School | RAR 3% Rec. | Label: Esoteric Reactive (EREACD 41032)

Esoteric Recordings' Reactive label is proud to announce the release of the first volume of an official bootleg series by the legendary Tangerine Dream. Featuring recordings made at Reims Cathedral, France in December 1974 and at the Mozarthalle, Mannheim, West Germany in October 1976, this 4 CD set has been compiled with the official approval of Tangerine Dream and features two concerts that were voted as some of the finest bootlegs in existence in a recent poll of fans. The concert at Reims Cathedral has gone down in Tangerine Dream history as a legendary event. The music performed by Edgar Froese, Christopher Franke and Peter Baumann was exemplary, although the circumstances surrounding the staging of the concert led to a ban on further performances in Cathedrals by The Vatican. The concert at the Mozarthalle in Mannheim is another fine example of the excellence of this incarnation of Tangerine Dream on stage. This official 4CD clamshell boxed set has been re-mastered from the best available sources and includes an illustrated booklet with a new essay.

Tangerine Dream - The Official Bootleg Series Vol.1 [4CD Box Set] (2015)

CD 1: Reims Cathedral, 13th December 1974
EAC Rip | FLAC (tracks+.cue+log) - 217 MB
Genre: Progressive Electronic, Berlin School | RAR 3% Rec. | Label: Esoteric Reactive (EREACD 41032)

Tracklist:
01. Reims Set One

Total time: 46:30

Exact Audio Copy V1.1 from 23. June 2015

EAC extraction logfile from 9. January 2016, 18:10

Tangerine Dream / The Official Bootleg Series, Volume One

Used drive : ATAPI iHAS124 W Adapter: 1 ID: 0

Read mode : Secure
Utilize accurate stream : Yes
Defeat audio cache : Yes
Make use of C2 pointers : No

Read offset correction : 48
Overread into Lead-In and Lead-Out : No
Fill up missing offset samples with silence : Yes
Delete leading and trailing silent blocks : No
Null samples used in CRC calculations : Yes
Used interface : Native Win32 interface for Win NT & 2000
Gap handling : Appended to previous track

Used output format : User Defined Encoder
Selected bitrate : 896 kBit/s
Quality : High
Add ID3 tag : No
Command line compressor : C:\Program Files (x86)\FLAC\win64\flac.exe
Additional command line options : -8 -V -T "artist=%artist%" -T "albumartist=%albumartist%" -T "album=%albumtitle%" -T "title=%title%" -T "year=%year%" -T "tracknumber=%tracknr2%" -T "genre=%genre%" %source% -o %dest%


TOC of the extracted CD

Track | Start | Length | Start sector | End sector
––––––––––––––––––––––––––––-
1 | 0:00.00 | 46:30.31 | 0 | 209280


Track 1

Filename F:\My Documents\My Music\Albums (Complete)\01. Reims Cathedral 13th December 1974, Set One.wav

Pre-gap length 0:00:02.00

Peak level 99.4 %
Extraction speed 3.0 X
Track quality 100.0 %
Test CRC 634E03F2
Copy CRC 634E03F2
Accurately ripped (confidence 1) [1E079647] (AR v2)
Copy OK


All tracks accurately ripped

No errors occurred

End of status report

–– CUETools DB Plugin V2.1.6

[CTDB TOCID: 06BzPnEN64TALmFSdJ86qUn8EA4-] found
Submit result: 06BzPnEN64TALmFSdJ86qUn8EA4- has been confirmed
Track | CTDB Status
1 | (9/9) Accurately ripped


==== Log checksum 4EEFF004CB352DC0966FE986C7D70309E22501D6BEF1105CD62FF0F5F52D52B2 ====

[CUETools log; Date: 11.11.2016 17:51:50; Version: 2.1.4]
[CTDB TOCID: 06BzPnEN64TALmFSdJ86qUn8EA4-] found.
Track | CTDB Status
1 | (20/20) Accurately ripped
[AccurateRip ID: 00033181-00066303-020ae601] found.
Track [ CRC | V2 ] Status
01 [00aa9401|1e079647] (00+11/11) Accurately ripped

Track Peak [ CRC32 ] [W/O NULL] [ LOG ]
– 99,4 [634E03F2] [3C3B0A44] CRC32
01 99,4 [634E03F2] [3C3B0A44] CRC32

Tangerine Dream - The Official Bootleg Series Vol.1 [4CD Box Set] (2015)

CD 2: Reims Cathedral, 13th December 1974
EAC Rip | FLAC (tracks+.cue+log) - 178 MB
Genre: Progressive Electronic, Berlin School | RAR 3% Rec. | Label: Esoteric Reactive (EREACD 41032)

Tracklist:
01. Reims Set Two

Total time: 36:28

Exact Audio Copy V1.1 from 23. June 2015

EAC extraction logfile from 9. January 2016, 18:30

Tangerine Dream / The Official Bootleg Series, Volume One

Used drive : ATAPI iHAS124 W Adapter: 1 ID: 0

Read mode : Secure
Utilize accurate stream : Yes
Defeat audio cache : Yes
Make use of C2 pointers : No

Read offset correction : 48
Overread into Lead-In and Lead-Out : No
Fill up missing offset samples with silence : Yes
Delete leading and trailing silent blocks : No
Null samples used in CRC calculations : Yes
Used interface : Native Win32 interface for Win NT & 2000
Gap handling : Appended to previous track

Used output format : User Defined Encoder
Selected bitrate : 896 kBit/s
Quality : High
Add ID3 tag : No
Command line compressor : C:\Program Files (x86)\FLAC\win64\flac.exe
Additional command line options : -8 -V -T "artist=%artist%" -T "albumartist=%albumartist%" -T "album=%albumtitle%" -T "title=%title%" -T "year=%year%" -T "tracknumber=%tracknr2%" -T "genre=%genre%" %source% -o %dest%


TOC of the extracted CD

Track | Start | Length | Start sector | End sector
––––––––––––––––––––––––––––-
1 | 0:00.00 | 36:27.71 | 0 | 164095


Track 1

Filename F:\My Documents\My Music\Albums (Complete)\01. Reims Cathedral 13th December 1974, Set Two.wav

Pre-gap length 0:00:02.00

Peak level 99.4 %
Extraction speed 6.6 X
Track quality 100.0 %
Test CRC 554662E4
Copy CRC 554662E4
Accurately ripped (confidence 1) [620D0375] (AR v2)
Copy OK


All tracks accurately ripped

No errors occurred

End of status report

–– CUETools DB Plugin V2.1.6

[CTDB TOCID: P_JdFQrUvRyF6yDPXD_kOVRy1nI-] found
Submit result: P_JdFQrUvRyF6yDPXD_kOVRy1nI- has been confirmed
Track | CTDB Status
1 | (8/8) Accurately ripped


==== Log checksum ABDDE4AB709E5071519A190BDA3166CC28160841B315D06CB995E6FECB04ED9F ====

[CUETools log; Date: 11.11.2016 17:53:27; Version: 2.1.4]
[CTDB TOCID: P_JdFQrUvRyF6yDPXD_kOVRy1nI-] found.
Track | CTDB Status
1 | (19/19) Accurately ripped
[AccurateRip ID: 00028100-00050201-02088b01] found.
Track [ CRC | V2 ] Status
01 [fb62945f|620d0375] (00+10/10) Accurately ripped

Track Peak [ CRC32 ] [W/O NULL] [ LOG ]
– 99,4 [554662E4] [4A65D934] CRC32
01 99,4 [554662E4] [4A65D934] CRC32

Tangerine Dream - The Official Bootleg Series Vol.1 [4CD Box Set] (2015)

CD 3: Mozartsaal, Mannheim, 31st October 1976
EAC Rip | FLAC (tracks+.cue+log) - 260 MB
Genre: Progressive Electronic, Berlin School | RAR 3% Rec. | Label: Esoteric Reactive (EREACD 41032)

Tracklist:
01. Mannheim Set (Part One)
02. Mannheim Set (Part Two)

Total time: 51:10

Exact Audio Copy V1.1 from 23. June 2015

EAC extraction logfile from 9. January 2016, 18:54

Tangerine Dream / The Official Bootleg Series, Volume One

Used drive : ATAPI iHAS124 W Adapter: 1 ID: 0

Read mode : Secure
Utilize accurate stream : Yes
Defeat audio cache : Yes
Make use of C2 pointers : No

Read offset correction : 48
Overread into Lead-In and Lead-Out : No
Fill up missing offset samples with silence : Yes
Delete leading and trailing silent blocks : No
Null samples used in CRC calculations : Yes
Used interface : Native Win32 interface for Win NT & 2000
Gap handling : Appended to previous track

Used output format : User Defined Encoder
Selected bitrate : 896 kBit/s
Quality : High
Add ID3 tag : No
Command line compressor : C:\Program Files (x86)\FLAC\win64\flac.exe
Additional command line options : -8 -V -T "artist=%artist%" -T "albumartist=%albumartist%" -T "album=%albumtitle%" -T "title=%title%" -T "year=%year%" -T "tracknumber=%tracknr2%" -T "genre=%genre%" %source% -o %dest%


TOC of the extracted CD

Track | Start | Length | Start sector | End sector
––––––––––––––––––––––––––––-
1 | 0:00.00 | 21:30.49 | 0 | 96798
2 | 21:30.49 | 29:39.15 | 96799 | 230238


Track 1

Filename F:\My Documents\My Music\Albums (Complete)\01. Mozartsaal Mannheim 31st October 1976 Set, Part One.wav

Pre-gap length 0:00:02.00

Peak level 94.0 %
Extraction speed 5.9 X
Track quality 100.0 %
Test CRC 62F1375B
Copy CRC 62F1375B
Accurately ripped (confidence 1) [09DA3848] (AR v2)
Copy OK

Track 2

Filename F:\My Documents\My Music\Albums (Complete)\02. Mozartsaal Mannheim 31st October 1976 Set, Part Two.wav

Pre-gap length 0:00:02.43

Peak level 99.4 %
Extraction speed 7.7 X
Track quality 99.9 %
Test CRC 7C2926C1
Copy CRC 7C2926C1
Accurately ripped (confidence 1) [FE4E9E38] (AR v2)
Copy OK


All tracks accurately ripped

No errors occurred

End of status report

–– CUETools DB Plugin V2.1.6

[CTDB TOCID: vHNscqt_QzqLn496oxV269PRyYo-] found
Submit result: vHNscqt_QzqLn496oxV269PRyYo- has been confirmed
Track | CTDB Status
1 | (8/8) Accurately ripped
2 | (8/8) Accurately ripped


==== Log checksum 68720A3665F8EE057DDF7FC8938866F92C54F37002458C3C9D3EC20F7B8DA18B ====

[CUETools log; Date: 11.11.2016 17:54:08; Version: 2.1.4]
[CTDB TOCID: vHNscqt_QzqLn496oxV269PRyYo-] found.
Track | CTDB Status
1 | (17/17) Accurately ripped
2 | (17/17) Accurately ripped
[AccurateRip ID: 0004fd7e-000d7e5c-100bfd02] found.
Track [ CRC | V2 ] Status
01 [96a80718|09da3848] (00+10/10) Accurately ripped
02 [126bc6ea|fe4e9e38] (00+10/10) Accurately ripped

Track Peak [ CRC32 ] [W/O NULL] [ LOG ]
– 99,4 [61BDA194] [6F2500FA]
01 94,0 [62F1375B] [E7620578] CRC32
02 99,4 [7C2926C1] [C9E6FCD3] CRC32

Tangerine Dream - The Official Bootleg Series Vol.1 [4CD Box Set] (2015)

CD 4: Mozartsaal, Mannheim, 31st October 1976
EAC Rip | FLAC (tracks+.cue+log) - 168 MB
Genre: Progressive Electronic, Berlin School | RAR 3% Rec. | Label: Esoteric Reactive (EREACD 41032)

Tracklist:
01. Mannheim Encore (Part One)
02. Mannheim Encore (Part Two)

Total time: 30:32

Exact Audio Copy V1.1 from 23. June 2015

EAC extraction logfile from 9. January 2016, 19:07

Tangerine Dream / The Official Bootleg Series, Volume One

Used drive : ATAPI iHAS124 W Adapter: 1 ID: 0

Read mode : Secure
Utilize accurate stream : Yes
Defeat audio cache : Yes
Make use of C2 pointers : No

Read offset correction : 48
Overread into Lead-In and Lead-Out : No
Fill up missing offset samples with silence : Yes
Delete leading and trailing silent blocks : No
Null samples used in CRC calculations : Yes
Used interface : Native Win32 interface for Win NT & 2000
Gap handling : Appended to previous track

Used output format : User Defined Encoder
Selected bitrate : 896 kBit/s
Quality : High
Add ID3 tag : No
Command line compressor : C:\Program Files (x86)\FLAC\win64\flac.exe
Additional command line options : -8 -V -T "artist=%artist%" -T "albumartist=%albumartist%" -T "album=%albumtitle%" -T "title=%title%" -T "year=%year%" -T "tracknumber=%tracknr2%" -T "genre=%genre%" %source% -o %dest%


TOC of the extracted CD

Track | Start | Length | Start sector | End sector
––––––––––––––––––––––––––––-
1 | 0:00.01 | 19:59.60 | 1 | 89985
2 | 19:59.61 | 10:31.53 | 89986 | 137363


Track 1

Filename F:\My Documents\My Music\Albums (Complete)\01. Mozartsaal Mannheim 31st October 1976 Encore, Part One.wav

Pre-gap length 0:00:02.01

Peak level 97.8 %
Extraction speed 5.8 X
Track quality 100.0 %
Test CRC D7552625
Copy CRC D7552625
Accurately ripped (confidence 1) [7D6F41BE] (AR v2)
Copy OK

Track 2

Filename F:\My Documents\My Music\Albums (Complete)\02. Mozartsaal Mannheim 31st October 1976 Encore, Part Two.wav

Pre-gap length 0:00:02.34

Peak level 99.4 %
Extraction speed 7.2 X
Track quality 100.0 %
Test CRC AFBBBB98
Copy CRC AFBBBB98
Accurately ripped (confidence 1) [29BC8B72] (AR v2)
Copy OK


All tracks accurately ripped

No errors occurred

End of status report

–– CUETools DB Plugin V2.1.6

[CTDB TOCID: LRAam2AM8hF8yvrb8qZ6o081avA-] found
Submit result: LRAam2AM8hF8yvrb8qZ6o081avA- has been confirmed
Track | CTDB Status
1 | (6/6) Accurately ripped
2 | (6/6) Accurately ripped


==== Log checksum 1D9AFCA80F213A0BE8DA96324D8C9BF0BDFDEA4560AE79B3AC49E0DBDF45AE3B ====

[CUETools log; Date: 11.11.2016 17:55:00; Version: 2.1.4]
Pregap length 00:00:01.
[CTDB TOCID: LRAam2AM8hF8yvrb8qZ6o081avA-] found.
Track | CTDB Status
1 | (14/14) Accurately ripped
2 | (14/14) Accurately ripped
[AccurateRip ID: 00037817-000908c1-06072702] found.
Track [ CRC | V2 ] Status
01 [f7f21de9|7d6f41be] (00+10/10) Accurately ripped
02 [2f01d14d|29bc8b72] (00+10/10) Accurately ripped

Track Peak [ CRC32 ] [W/O NULL] [ LOG ]
– 99,4 [8CA94527] [977C55EA]
01 97,8 [D7552625] [19103459] CRC32
02 99,4 [AFBBBB98] [0ABBB6E9] CRC32

Thanks to the original releaser