Tags
Language
Tags

Tangerine Dream - The Park Is Mine (OST) (1991)

Posted By:
Tangerine Dream - The Park Is Mine (OST) (1991)

Tangerine Dream - The Park Is Mine (OST) (1991)
EAC Rip | APE (image+.cue+log) - 297 MB | MP3 CBR 320 kbps (LAME 3.93) - 120 MB | Covers included
Genre: Progressive Electronic, Berlin School | RAR 3% Rec. | Label: Silva America (SSD 1004), 1992

In 1991 the soundtrack music of the film The Park Is Mine, starring Tommy Lee Jones, was released for the first time on CD. It had been composed back in 1985 by TD with the line-up Edgar Froese, Chris Franke and Johannes Schmoelling. As stated on the CD insert, the recording was prepared for release without the cooperation of TD. Thus it could not be mastered using the original master tapes by TD but two-track stereo tapes used for the film. This resulted in a sound quality not as excellent as TD listeners are used to.
Tracklist:
01. The Park Is Mine Main Title
02. Fatal Fall / Funeral
03. The Letter (Parts 1 & 2)
04. Taking The Park (Parts 1 & 2)
05. Swatting S.W.A.T.
06. Love Theme
07. The Helicopter Attack
08. Morning
09. We're Running Out Of Time
10. The Claymore Mine/Stalking
11. The Final Confrontation / "The Park Is Yours!"
12. Finale / End Credits

Total time: 50:32

Exact Audio Copy V0.99 prebeta 5 from 4. May 2009

EAC extraction logfile from 29. November 2009, 2:48

Tangerine Dream / The Park Is Mine

Used drive : ASUS DRW-1814BL Adapter: 0 ID: 0

Read mode : Secure
Utilize accurate stream : Yes
Defeat audio cache : Yes
Make use of C2 pointers : No

Read offset correction : 6
Overread into Lead-In and Lead-Out : No
Fill up missing offset samples with silence : Yes
Delete leading and trailing silent blocks : No
Null samples used in CRC calculations : Yes
Used interface : Native Win32 interface for Win NT & 2000

Used output format : Internal WAV Routines
Sample format : 44.100 Hz; 16 Bit; Stereo


TOC of the extracted CD

Track | Start | Length | Start sector | End sector
––––––––––––––––––––––––––––-
1 | 0:00.00 | 1:15.32 | 0 | 5656
2 | 1:15.32 | 2:14.60 | 5657 | 15766
3 | 3:30.17 | 5:17.08 | 15767 | 39549
4 | 8:47.25 | 8:35.12 | 39550 | 78186
5 | 17:22.37 | 7:32.43 | 78187 | 112129
6 | 24:55.05 | 3:34.40 | 112130 | 128219
7 | 28:29.45 | 4:41.67 | 128220 | 149361
8 | 33:11.37 | 1:20.38 | 149362 | 155399
9 | 34:32.00 | 1:02.22 | 155400 | 160071
10 | 35:34.22 | 5:17.45 | 160072 | 183891
11 | 40:51.67 | 3:29.53 | 183892 | 199619
12 | 44:21.45 | 6:10.30 | 199620 | 227399


Range status and errors

Selected range

Filename D:\EAC\Tangerine Dream - The Park Is Mine.wav

Peak level 98.0 %
Range quality 100.0 %
Copy CRC B18D6A7F
Copy OK

No errors occurred


AccurateRip summary

Track 1 accurately ripped (confidence 1) [EA42C107]
Track 2 accurately ripped (confidence 1) [8B9D16A9]
Track 3 accurately ripped (confidence 1) [471F8F21]
Track 4 accurately ripped (confidence 1) [F9201F25]
Track 5 accurately ripped (confidence 1) [472E4B53]
Track 6 accurately ripped (confidence 1) [81BE1E07]
Track 7 accurately ripped (confidence 1) [07FA3357]
Track 8 accurately ripped (confidence 1) [BB6A95DA]
Track 9 accurately ripped (confidence 1) [1E21816D]
Track 10 accurately ripped (confidence 1) [648A63C9]
Track 11 accurately ripped (confidence 1) [B279BEC5]
Track 12 accurately ripped (confidence 1) [B0B50850]

All tracks accurately ripped

End of status report

[CUETools log; Date: 22.10.2017 18:27:02; Version: 2.1.4]
[CTDB TOCID: jYMQLegWXYlIhouGjvRunHPUopU-] found.
Track | CTDB Status
1 | (9/9) Accurately ripped
2 | (9/9) Accurately ripped
3 | (9/9) Accurately ripped
4 | (9/9) Accurately ripped
5 | (9/9) Accurately ripped
6 | (9/9) Accurately ripped
7 | (9/9) Accurately ripped
8 | (9/9) Accurately ripped
9 | (9/9) Accurately ripped
10 | (9/9) Accurately ripped
11 | (9/9) Accurately ripped
12 | (9/9) Accurately ripped
[AccurateRip ID: 00163499-00d1c233-9b0bd80c] found.
Track [ CRC | V2 ] Status
01 [ea42c107|96681f58] (4+0/4) Accurately ripped
02 [8b9d16a9|5fa24913] (4+0/4) Accurately ripped
03 [471f8f21|99d6e614] (4+0/4) Accurately ripped
04 [f9201f25|c4e8bca1] (4+0/4) Accurately ripped
05 [472e4b53|407a5b76] (4+0/4) Accurately ripped
06 [81be1e07|c5b786c0] (4+0/4) Accurately ripped
07 [07fa3357|0f91e8ea] (4+0/4) Accurately ripped
08 [bb6a95da|2e4d87d6] (4+0/4) Accurately ripped
09 [1e21816d|078a009a] (4+0/4) Accurately ripped
10 [648a63c9|ba39c560] (4+0/4) Accurately ripped
11 [b279bec5|37a85d16] (4+0/4) Accurately ripped
12 [b0b50850|9b88257f] (4+0/4) Accurately ripped

Track Peak [ CRC32 ] [W/O NULL] [ LOG ]
– 98,0 [B18D6A7F] [08A7172B] CRC32
01 88,5 [555941C2] [2E0C12A1]
02 75,0 [3CE2EB43] [9393FEE1]
03 93,5 [1B0C5E47] [BA45A112]
04 90,8 [DB7E995C] [3DF57D3C]
05 98,0 [3D826EE7] [DD409F10]
06 78,1 [B9E23F6B] [CE2F28F6]
07 95,5 [0717FE45] [AE13B65D]
08 52,3 [B0E22963] [CDBDA081]
09 91,2 [1740BC89] [75B5F2F3]
10 93,2 [38032508] [1CB767F0]
11 97,3 [60E42475] [F6AAF35A]
12 91,5 [2F319D95] [3A7B2B34]

Thanks to the original releaser