Subcategories

Tangerine Dream - The Seven Letters From Tibet (2000)

Posted By: gribovar
Tangerine Dream - The Seven Letters From Tibet (2000)

Tangerine Dream - The Seven Letters From Tibet (2000)
EAC Rip | APE (image+.cue+log) - 274 MB | Covers - 5 MB
Genre: Progressive Electronic | RAR 3% Rec. | Label: TDI Music (TDI CD029)

The Seven Letters From Tibet is easily one of Tangerine Dreams most powerful albums, both emotionally and spiritually. Like many other Tangerine Dream albums, The Seven Letters From Tibet is a magnificent meditative experience, blending natural and digital sounds together to produce a soft but well defined journey.
Tracklist:
01. The Red Blood Connection
02. The Orange Breath
03. The Golden Heart
04. The Green Land
05. The Blue Pearl
06. The Indigo Clouds
07. The Purple of All Curtains

Total time: 49:36

Exact Audio Copy V0.99 prebeta 5 from 4. May 2009

EAC extraction logfile from 23. June 2011, 17:59

Tangerine Dream / The Seven Letters From Tibet

Used drive : PIONEER DVD-RW DVR-116D Adapter: 4 ID: 0

Read mode : Secure
Utilize accurate stream : Yes
Defeat audio cache : Yes
Make use of C2 pointers : No

Read offset correction : 96
Overread into Lead-In and Lead-Out : No
Fill up missing offset samples with silence : Yes
Delete leading and trailing silent blocks : No
Null samples used in CRC calculations : Yes
Used interface : Installed external ASPI interface

Used output format : Internal WAV Routines
Sample format : 44.100 Hz; 16 Bit; Stereo


TOC of the extracted CD

Track | Start | Length | Start sector | End sector
––––––––––––––––––––––––––––-
1 | 0:00.00 | 4:49.13 | 0 | 21687
2 | 4:49.13 | 6:15.63 | 21688 | 49875
3 | 11:05.01 | 5:48.11 | 49876 | 75986
4 | 16:53.12 | 7:28.14 | 75987 | 109600
5 | 24:21.26 | 14:08.22 | 109601 | 173222
6 | 38:29.48 | 7:07.40 | 173223 | 205287
7 | 45:37.13 | 3:58.56 | 205288 | 223193


Range status and errors

Selected range

Filename C:\+EAC+\Tangerine Dream - The Seven Letters From Tibet.wav

Peak level 100.0 %
Range quality 100.0 %
Test CRC 0F61E47C
Copy CRC 0F61E47C
Copy OK

No errors occurred

End of status report

Thanks to SORIA