Tangerine Dream - The Virgin Years 1974-1978 [3CD Box Set] (2011)

Posted By: gribovar
Tangerine Dream - The Virgin Years 1974-1978 [3CD Box Set] (2011)

Tangerine Dream - The Virgin Years 1974-1978 [3CD Box Set] (2011)
EAC Rip | FLAC (tracks+.cue+log) - 1,08 GB | MP3 CBR 320 kbps (LAME 3.93) - 521 MB | Covers - 47 MB
Genre: Progressive Electronic, Berlin School | RAR 3% Rec. | Label: Virgin Records (VTDX 7478)

Fans generally acknowledge the classic era of Tangerine Dream as coinciding with their Virgin years, which this collection rounds up nicely, opening with two landmarks, Phaedra and Rubycon, then including the group's broadening of scope and direction with the live Ricochet, Stratosfear, and Cyclone. This was directly after the early avant-garde years, consisting of experimental, arrhythmic work like Atem and Electronic Meditation, and before the Hollywood years, when Edgar Froese and co. began composing work for movie scores like Risky Business. Phaedra and Rubycon have not dated at all since their early-‘70s recording, despite Froese, Peter Baumann, and Chris Franke’s early adoption of Moog technology, along with Mellotron and other electric or electronic instruments. Along with the full LPs in their most recent remastering, the collection also rounds up single edits and 7” versions when they were originally available.

CD 1 Tracklist:
01. Phaedra
02. Mysterious Semblance At The Strand Of Nightmares
03. Movements Of A Visionary
04. Sequent C'
05. Rubycon Part One
06. Rubycon Part Two

Total time: 01:12:33

CD 2 Tracklist:
01. Rubycon Part Two (excerpt)
02. Rubycon (7" Side One)
03. Rubycon (7" Side Two)
04. Ricochet (Part One)
05. Ricochet (Part Two)
06. Stratosfear
07. The Big Sleep In Search Of Hades

Total time: 01:09:34

CD 3 Tracklist:
01. 3 am At The Border Of The Marsh From Okefenokee
02. Invisible Limits
03. Stratosfear (7" Single Edit)
04. The Big Sleep In Search Of Hades (7" Single Edit)
05. Bent Cold Sidewalk
06. Rising Runner Missed By Endless Sender
07. Madrigal Meridian
08. Madrigal Meridian (excerpt)
09. Phaedra Radio Advert
10. Rubycon Radio Advert

Total time: 01:18:56

Exact Audio Copy V1.0 beta 1 from 15. November 2010

EAC extraction logfile from 20. January 2011, 15:19

Tangerine Dream / The Virgin Years 1974-1978 (Disc 1)

Used drive : ATAPI iHAS324 Y Adapter: 0 ID: 1

Read mode : Secure
Utilize accurate stream : Yes
Defeat audio cache : Yes
Make use of C2 pointers : No

Read offset correction : 48
Overread into Lead-In and Lead-Out : No
Fill up missing offset samples with silence : Yes
Delete leading and trailing silent blocks : No
Null samples used in CRC calculations : Yes
Used interface : Native Win32 interface for Win NT & 2000
Gap handling : Appended to previous track

Used output format : User Defined Encoder
Selected bitrate : 768 kBit/s
Quality : High
Add ID3 tag : No
Command line compressor : C:\Program Files\Exact Audio Copy\Flac\flac.exe
Additional command line options : -8 -V -T "ARTIST=%a" -T "TITLE=%t" -T "ALBUM=%g" -T "DATE=%y" -T "TRACKNUMBER=%n" -T "TOTALTRACKS=%x" -T "GENRE=%m" -T "ALBUMARTIST=%v" -T "ALBUM ARTIST=%v" -T "COMMENT=EAC Secure Mode, Test & Copy, AccurateRip, FLAC -8" %s


TOC of the extracted CD

Track | Start | Length | Start sector | End sector
––––––––––––––––––––––––––––-
1 | 0:00.00 | 17:36.43 | 0 | 79242
2 | 17:36.43 | 9:44.17 | 79243 | 123059
3 | 27:20.60 | 7:57.38 | 123060 | 158872
4 | 35:18.23 | 2:19.33 | 158873 | 169330
5 | 37:37.56 | 17:19.64 | 169331 | 247319
6 | 54:57.45 | 17:35.08 | 247320 | 326452


Track 1

Filename C:\LosslessII\Tangerine Dream - The Virgin Years 1974-1978 (2011) [FLAC]\Disc1\01 - Phaedra.wav

Pre-gap length 0:00:02.00

Peak level 97.7 %
Extraction speed 3.1 X
Track quality 100.0 %
Test CRC F6798185
Copy CRC F6798185
Track not present in AccurateRip database
Copy OK

Track 2

Filename C:\LosslessII\Tangerine Dream - The Virgin Years 1974-1978 (2011) [FLAC]\Disc1\02 - Mysterious Semblance At The Strand Of Nightmares.wav

Peak level 97.7 %
Extraction speed 3.8 X
Track quality 100.0 %
Test CRC C21DD84C
Copy CRC C21DD84C
Track not present in AccurateRip database
Copy OK

Track 3

Filename C:\LosslessII\Tangerine Dream - The Virgin Years 1974-1978 (2011) [FLAC]\Disc1\03 - Movements Of A Visionary.wav

Pre-gap length 0:00:02.29

Peak level 86.9 %
Extraction speed 3.8 X
Track quality 99.9 %
Test CRC 5FE4357C
Copy CRC 5FE4357C
Track not present in AccurateRip database
Copy OK

Track 4

Filename C:\LosslessII\Tangerine Dream - The Virgin Years 1974-1978 (2011) [FLAC]\Disc1\04 - Sequent C'.wav

Pre-gap length 0:00:03.05

Peak level 77.5 %
Extraction speed 3.6 X
Track quality 100.0 %
Test CRC A2E1D27C
Copy CRC A2E1D27C
Track not present in AccurateRip database
Copy OK

Track 5

Filename C:\LosslessII\Tangerine Dream - The Virgin Years 1974-1978 (2011) [FLAC]\Disc1\05 - Rubycon Part One.wav

Pre-gap length 0:00:02.51

Peak level 97.7 %
Extraction speed 4.9 X
Track quality 100.0 %
Test CRC 99C79D6C
Copy CRC 99C79D6C
Track not present in AccurateRip database
Copy OK

Track 6

Filename C:\LosslessII\Tangerine Dream - The Virgin Years 1974-1978 (2011) [FLAC]\Disc1\06 - Rubycon Part Two.wav

Pre-gap length 0:00:04.15

Peak level 97.7 %
Extraction speed 5.5 X
Track quality 100.0 %
Test CRC 82580B6D
Copy CRC 82580B6D
Track not present in AccurateRip database
Copy OK


None of the tracks are present in the AccurateRip database

No errors occurred

End of status report

==== Log checksum E0358B385DEF02628DB369ED1B14B3375B0ED11F8BE2A63EC6834576C6B413D4 ====

[CUETools log; Date: 19.10.2017 15:15:54; Version: 2.1.4]
[CTDB TOCID: iUMb5KJiRJdqnT_sn2zwpoojYYc-] found.
Track | CTDB Status
1 | (165/165) Accurately ripped
2 | (165/165) Accurately ripped
3 | (165/165) Accurately ripped
4 | (164/165) Accurately ripped
5 | (165/165) Accurately ripped
6 | (165/165) Accurately ripped
[AccurateRip ID: 0010d998-00582dd9-4b110006] found.
Track [ CRC | V2 ] Status
01 [30be8eb5|007ad192] (012+065/167) Accurately ripped
02 [09597be0|175663ca] (012+065/167) Accurately ripped
03 [5b6c169d|1d410712] (012+066/168) Accurately ripped
04 [a4b6e7db|c258e059] (012+066/168) Accurately ripped
05 [deb363c6|9db49091] (011+065/166) Accurately ripped
06 [672d3146|a846142c] (012+065/168) Accurately ripped
Offsetted by -36:
01 [6662b18d] (003/167) Accurately ripped
02 [49f9cf10] (003/167) Accurately ripped
03 [bc1ac771] (003/168) Accurately ripped
04 [ae0d1753] (003/168) Accurately ripped
05 [409fbb2e] (003/166) Accurately ripped
06 [679e60f2] (003/168) Accurately ripped
Offsetted by -42:
01 [99fe0cb1] (000/167) No match (V2 was not tested)
02 [2a148798] (000/167) No match (V2 was not tested)
03 [a18d3a3f] (000/168) No match (V2 was not tested)
04 [84f0c9e7] (000/168) No match (V2 was not tested)
05 [fb9c746a] (000/166) No match (V2 was not tested)
06 [125be8e4] (000/168) No match (V2 was not tested)
Offsetted by -30:
01 [32c75669] (000/167) No match (V2 was not tested)
02 [69df1688] (000/167) No match (V2 was not tested)
03 [d6a854a3] (000/168) No match (V2 was not tested)
04 [d72964bf] (000/168) No match (V2 was not tested)
05 [85a301f2] (000/166) No match (V2 was not tested)
06 [bce0d900] (000/168) No match (V2 was not tested)

Track Peak [ CRC32 ] [W/O NULL] [ LOG ]
– 97,7 [D6D42941] [C975C4C3]
01 97,7 [F6798185] [B76A9528] CRC32
02 97,7 [C21DD84C] [9F282081] CRC32
03 86,9 [5FE4357C] [487D04B5] CRC32
04 77,5 [A2E1D27C] [872724C5] CRC32
05 97,7 [99C79D6C] [E7D63C37] CRC32
06 97,7 [82580B6D] [1B010AEC] CRC32

Exact Audio Copy V1.0 beta 1 from 15. November 2010

EAC extraction logfile from 20. January 2011, 18:38

Tangerine Dream / The Virgin Years 1974-1978 (Disc 2)

Used drive : ATAPI iHAS324 Y Adapter: 0 ID: 1

Read mode : Secure
Utilize accurate stream : Yes
Defeat audio cache : Yes
Make use of C2 pointers : No

Read offset correction : 48
Overread into Lead-In and Lead-Out : No
Fill up missing offset samples with silence : Yes
Delete leading and trailing silent blocks : No
Null samples used in CRC calculations : Yes
Used interface : Native Win32 interface for Win NT & 2000
Gap handling : Appended to previous track

Used output format : User Defined Encoder
Selected bitrate : 768 kBit/s
Quality : High
Add ID3 tag : No
Command line compressor : C:\Program Files\Exact Audio Copy\Flac\flac.exe
Additional command line options : -8 -V -T "ARTIST=%a" -T "TITLE=%t" -T "ALBUM=%g" -T "DATE=%y" -T "TRACKNUMBER=%n" -T "TOTALTRACKS=%x" -T "GENRE=%m" -T "ALBUMARTIST=%v" -T "ALBUM ARTIST=%v" -T "COMMENT=EAC Secure Mode, Test & Copy, AccurateRip, FLAC -8" %s


TOC of the extracted CD

Track | Start | Length | Start sector | End sector
––––––––––––––––––––––––––––-
1 | 0:00.00 | 10:01.42 | 0 | 45116
2 | 10:01.42 | 3:10.30 | 45117 | 59396
3 | 13:11.72 | 3:12.59 | 59397 | 73855
4 | 16:24.56 | 17:01.27 | 73856 | 150457
5 | 33:26.08 | 21:05.07 | 150458 | 245339
6 | 54:31.15 | 10:36.18 | 245340 | 293057
7 | 65:07.33 | 4:26.41 | 293058 | 313048


Track 1

Filename C:\LosslessII\Tangerine Dream - The Virgin Years 1974-1978 (2011) [FLAC]\Disc2\01 - Rubycon Part Two (excerpt).wav

Pre-gap length 0:00:02.00

Peak level 97.7 %
Extraction speed 2.7 X
Track quality 100.0 %
Test CRC 8156CB8F
Copy CRC 8156CB8F
Track not present in AccurateRip database
Copy OK

Track 2

Filename C:\LosslessII\Tangerine Dream - The Virgin Years 1974-1978 (2011) [FLAC]\Disc2\02 - Rubycon (7'' Side One).wav

Pre-gap length 0:00:03.00

Peak level 97.7 %
Extraction speed 2.7 X
Track quality 100.0 %
Test CRC FAAB1FDC
Copy CRC FAAB1FDC
Track not present in AccurateRip database
Copy OK

Track 3

Filename C:\LosslessII\Tangerine Dream - The Virgin Years 1974-1978 (2011) [FLAC]\Disc2\03 - Rubycon (7'' Side Two).wav

Pre-gap length 0:00:01.71

Peak level 97.7 %
Extraction speed 2.9 X
Track quality 100.0 %
Test CRC 3235BC65
Copy CRC 3235BC65
Track not present in AccurateRip database
Copy OK

Track 4

Filename C:\LosslessII\Tangerine Dream - The Virgin Years 1974-1978 (2011) [FLAC]\Disc2\04 - Ricochet Part One.wav

Pre-gap length 0:00:02.15

Peak level 69.0 %
Extraction speed 3.9 X
Track quality 100.0 %
Test CRC 99C7B680
Copy CRC 99C7B680
Track not present in AccurateRip database
Copy OK

Track 5

Filename C:\LosslessII\Tangerine Dream - The Virgin Years 1974-1978 (2011) [FLAC]\Disc2\05 - Ricochet Part Two.wav

Pre-gap length 0:00:03.14

Peak level 69.0 %
Extraction speed 4.7 X
Track quality 100.0 %
Test CRC DEE4FD74
Copy CRC DEE4FD74
Track not present in AccurateRip database
Copy OK

Track 6

Filename C:\LosslessII\Tangerine Dream - The Virgin Years 1974-1978 (2011) [FLAC]\Disc2\06 - Stratosfear.wav

Pre-gap length 0:00:03.09

Peak level 97.7 %
Extraction speed 4.8 X
Track quality 99.9 %
Test CRC A5D915B3
Copy CRC A5D915B3
Track not present in AccurateRip database
Copy OK

Track 7

Filename C:\LosslessII\Tangerine Dream - The Virgin Years 1974-1978 (2011) [FLAC]\Disc2\07 - The Big Sleep In Search Of Hades.wav

Pre-gap length 0:00:03.41

Peak level 33.6 %
Extraction speed 4.9 X
Track quality 100.0 %
Test CRC F7F08806
Copy CRC F7F08806
Track not present in AccurateRip database
Copy OK


None of the tracks are present in the AccurateRip database

No errors occurred

End of status report

==== Log checksum A0B905E7C06A80B5463CEFEE8DDC954004F9C7ECF1675B716E6914E40E94870A ====

[CUETools log; Date: 19.10.2017 15:17:10; Version: 2.1.4]
[CTDB TOCID: 7AWaSCnYaB5kjO9b3X83z1qv4B8-] found.
Track | CTDB Status
1 | (156/157) Accurately ripped
2 | (156/157) Accurately ripped
3 | (156/157) Accurately ripped
4 | (157/157) Accurately ripped
5 | (156/157) Accurately ripped
6 | (155/157) Accurately ripped
7 | (152/157) Accurately ripped
[AccurateRip ID: 00120273-00700f6a-63104d07] found.
Track [ CRC | V2 ] Status
01 [17f1a6ff|d368ef69] (014+137/160) Accurately ripped
02 [2168685a|740d5ed4] (015+139/163) Accurately ripped
03 [95d71123|6e52d03a] (014+140/163) Accurately ripped
04 [ab81c968|7e50d0fe] (015+144/168) Accurately ripped
05 [da16d344|510cb486] (014+143/166) Accurately ripped
06 [23e816ba|5ecd125f] (015+141/165) Accurately ripped
07 [9272d198|e8da616b] (015+139/163) Accurately ripped
Offsetted by -12:
01 [701d1edb] (000/160) No match (V2 was not tested)
02 [1d6f7e3a] (000/163) No match (V2 was not tested)
03 [cd652dcb] (000/163) No match (V2 was not tested)
04 [ea7b57ac] (000/168) No match (V2 was not tested)
05 [b9d2797c] (000/166) No match (V2 was not tested)
06 [db1fc35e] (000/165) No match (V2 was not tested)
07 [c176d098] (000/163) No match (V2 was not tested)

Track Peak [ CRC32 ] [W/O NULL] [ LOG ]
– 97,7 [127A2F9B] [9E1CF545]
01 97,7 [8156CB8F] [BF269202] CRC32
02 97,7 [FAAB1FDC] [4235A1E4] CRC32
03 97,7 [3235BC65] [91776D92] CRC32
04 69,0 [99C7B680] [9CCA5416] CRC32
05 69,0 [DEE4FD74] [78519EF6] CRC32
06 97,7 [A5D915B3] [9CA7207E] CRC32
07 33,6 [F7F08806] [EE047791] CRC32

Exact Audio Copy V1.0 beta 1 from 15. November 2010

EAC extraction logfile from 21. January 2011, 15:26

Tangerine Dream / The Virgin Years 1974-1978 (Disc 3)

Used drive : ATAPI iHAS324 Y Adapter: 0 ID: 1

Read mode : Secure
Utilize accurate stream : Yes
Defeat audio cache : Yes
Make use of C2 pointers : No

Read offset correction : 48
Overread into Lead-In and Lead-Out : No
Fill up missing offset samples with silence : Yes
Delete leading and trailing silent blocks : No
Null samples used in CRC calculations : Yes
Used interface : Native Win32 interface for Win NT & 2000
Gap handling : Appended to previous track

Used output format : User Defined Encoder
Selected bitrate : 768 kBit/s
Quality : High
Add ID3 tag : No
Command line compressor : C:\Program Files\Exact Audio Copy\Flac\flac.exe
Additional command line options : -8 -V -T "ARTIST=%a" -T "TITLE=%t" -T "ALBUM=%g" -T "DATE=%y" -T "TRACKNUMBER=%n" -T "TOTALTRACKS=%x" -T "GENRE=%m" -T "ALBUMARTIST=%v" -T "ALBUM ARTIST=%v" -T "COMMENT=EAC Secure Mode, Test & Copy, AccurateRip, FLAC -8" %s


TOC of the extracted CD

Track | Start | Length | Start sector | End sector
––––––––––––––––––––––––––––-
1 | 0:00.00 | 8:49.70 | 0 | 39744
2 | 8:49.70 | 11:27.27 | 39745 | 91296
3 | 20:17.22 | 4:18.29 | 91297 | 110675
4 | 24:35.51 | 3:23.67 | 110676 | 125967
5 | 27:59.43 | 13:08.44 | 125968 | 185111
6 | 41:08.12 | 5:02.16 | 185112 | 207777
7 | 46:10.28 | 20:31.49 | 207778 | 300151
8 | 66:42.02 | 11:09.61 | 300152 | 350387
9 | 77:51.63 | 0:32.20 | 350388 | 352807
10 | 78:24.08 | 0:32.18 | 352808 | 355225


Track 1

Filename C:\LosslessII\Tangerine Dream - The Virgin Years 1974-1978 (2011) [FLAC]\Disc3\01 - 3am At The Border Of The Marsh From Okefenokee.wav

Pre-gap length 0:00:02.00

Peak level 97.7 %
Extraction speed 2.9 X
Track quality 100.0 %
Test CRC C6CCFAE0
Copy CRC C6CCFAE0
Track not present in AccurateRip database
Copy OK

Track 2

Filename C:\LosslessII\Tangerine Dream - The Virgin Years 1974-1978 (2011) [FLAC]\Disc3\02 - Invisible Limits.wav

Peak level 97.7 %
Extraction speed 3.3 X
Track quality 99.9 %
Test CRC 16843466
Copy CRC 16843466
Track not present in AccurateRip database
Copy OK

Track 3

Filename C:\LosslessII\Tangerine Dream - The Virgin Years 1974-1978 (2011) [FLAC]\Disc3\03 - Stratosfear (7'' Single Edit).wav

Pre-gap length 0:00:02.51

Peak level 97.7 %
Extraction speed 3.6 X
Track quality 100.0 %
Test CRC 17CB7F3D
Copy CRC 17CB7F3D
Track not present in AccurateRip database
Copy OK

Track 4

Filename C:\LosslessII\Tangerine Dream - The Virgin Years 1974-1978 (2011) [FLAC]\Disc3\04 - The Big Sleep In Search Of Hades (7'' Single Edit).wav

Pre-gap length 0:00:03.30

Peak level 97.7 %
Extraction speed 3.1 X
Track quality 99.9 %
Test CRC BCD2A193
Copy CRC BCD2A193
Track not present in AccurateRip database
Copy OK

Track 5

Filename C:\LosslessII\Tangerine Dream - The Virgin Years 1974-1978 (2011) [FLAC]\Disc3\05 - Bent Cold Sidewalk.wav

Pre-gap length 0:00:02.68

Peak level 96.8 %
Extraction speed 4.5 X
Track quality 100.0 %
Test CRC 4089ACB9
Copy CRC 4089ACB9
Track not present in AccurateRip database
Copy OK

Track 6

Filename C:\LosslessII\Tangerine Dream - The Virgin Years 1974-1978 (2011) [FLAC]\Disc3\06 - Rising Runner Missed By Endless Sender.wav

Pre-gap length 0:00:03.70

Peak level 84.8 %
Extraction speed 4.6 X
Track quality 100.0 %
Test CRC B9F77062
Copy CRC B9F77062
Track not present in AccurateRip database
Copy OK

Track 7

Filename C:\LosslessII\Tangerine Dream - The Virgin Years 1974-1978 (2011) [FLAC]\Disc3\07 - Madrigal Meridian.wav

Pre-gap length 0:00:01.72

Peak level 97.7 %
Extraction speed 5.5 X
Track quality 100.0 %
Test CRC 8B12116D
Copy CRC 8B12116D
Track not present in AccurateRip database
Copy OK

Track 8

Filename C:\LosslessII\Tangerine Dream - The Virgin Years 1974-1978 (2011) [FLAC]\Disc3\08 - Madrigal Meridian (excerpt).wav

Pre-gap length 0:00:03.04

Peak level 97.7 %
Extraction speed 5.9 X
Track quality 100.0 %
Test CRC 49460FD0
Copy CRC 49460FD0
Track not present in AccurateRip database
Copy OK

Track 9

Filename C:\LosslessII\Tangerine Dream - The Virgin Years 1974-1978 (2011) [FLAC]\Disc3\09 - Phaedra Radio Advert.wav

Peak level 69.0 %
Extraction speed 2.8 X
Track quality 100.0 %
Test CRC D04848FA
Copy CRC D04848FA
Track not present in AccurateRip database
Copy OK

Track 10

Filename C:\LosslessII\Tangerine Dream - The Virgin Years 1974-1978 (2011) [FLAC]\Disc3\10 - Rubycon Radio Advert.wav

Peak level 65.2 %
Extraction speed 1.8 X
Track quality 99.6 %
Test CRC E2BD0565
Copy CRC E2BD0565
Track not present in AccurateRip database
Copy OK


None of the tracks are present in the AccurateRip database

No errors occurred

End of status report

==== Log checksum 775F6DD3503F903623E6EA1D9886EEC531BFC178E23000525A80767CF1561386 ====

[CUETools log; Date: 19.10.2017 15:17:41; Version: 2.1.4]
[CTDB TOCID: KHV.gCUGYQWIOl6pQNKIKh6vvWk-] found.
Track | CTDB Status
1 | (139/139) Accurately ripped
2 | (138/139) Accurately ripped
3 | (138/139) Accurately ripped
4 | (139/139) Accurately ripped
5 | (139/139) Accurately ripped
6 | (137/139) Accurately ripped
7 | (137/139) Accurately ripped
8 | (137/139) Accurately ripped
9 | (139/139) Accurately ripped
10 | (139/139) Accurately ripped
[AccurateRip ID: 002055ee-01031d46-8712800a] found.
Track [ CRC | V2 ] Status
01 [6d82a52b|eb1a5093] (005+019/155) Accurately ripped
02 [c9c9179c|cd71c729] (004+019/154) Accurately ripped
03 [5b6172c6|f7d4a09e] (004+019/151) Accurately ripped
04 [3b7b32b4|62a6585f] (005+019/152) Accurately ripped
05 [21aac92d|df79903a] (004+019/152) Accurately ripped
06 [d1749d21|886b756d] (005+019/155) Accurately ripped
07 [d4566ae2|a0f9a5d2] (004+019/154) Accurately ripped
08 [92535d3f|8b3605f3] (005+018/151) Accurately ripped
09 [4805274b|f3f9fad5] (005+019/151) Accurately ripped
10 [3a80084c|ad2e04b0] (005+018/149) Accurately ripped
Offsetted by -36:
01 [97219e6f] (005/155) Accurately ripped
02 [5fd7c218] (005/154) Accurately ripped
03 [196e3ace] (005/151) Accurately ripped
04 [e5cf4514] (005/152) Accurately ripped
05 [78510ef1] (005/152) Accurately ripped
06 [77647b99] (005/155) Accurately ripped
07 [a2593b02] (005/154) Accurately ripped
08 [0d267447] (005/151) Accurately ripped
09 [81002d4f] (005/151) Accurately ripped
10 [b22d5ff4] (005/149) Accurately ripped
Offsetted by 6:
01 [6692d0f5] (005/155) Accurately ripped
02 [061bfb32] (005/154) Accurately ripped
03 [9109fc1a] (005/151) Accurately ripped
04 [f46d2fa4] (005/152) Accurately ripped
05 [bde46837] (005/152) Accurately ripped
06 [8b21f80d] (005/155) Accurately ripped
07 [5cab4832] (005/154) Accurately ripped
08 [a8858413] (005/151) Accurately ripped
09 [13db50f5] (005/151) Accurately ripped
10 [d13879b0] (005/149) Accurately ripped

Track Peak [ CRC32 ] [W/O NULL] [ LOG ]
– 97,7 [7512F35F] [F82F0688]
01 97,7 [C6CCFAE0] [7C73256E] CRC32
02 97,7 [16843466] [CB9665AF] CRC32
03 97,7 [17CB7F3D] [AA1C47A4] CRC32
04 97,7 [BCD2A193] [D94E9575] CRC32
05 96,8 [4089ACB9] [0FE62CD1] CRC32
06 84,8 [B9F77062] [3B31B820] CRC32
07 97,7 [8B12116D] [63133E00] CRC32
08 97,7 [49460FD0] [BF898D2C] CRC32
09 69,0 [D04848FA] [488911B1] CRC32
10 65,2 [E2BD0565] [C088BBB0] CRC32

Thanks to the original releaser

See also:

Tangerine Dream - The Electronic Journey (2010) [10CD Box Set]
Tangerine Dream - The Dream Roots Collection [5CD Box Set] (1996)
Tangerine Dream - 2 Studio Albums (1971-1973) [Reissue 2011]
Tangerine Dream - Phaedra (1974) [Original Edition]
Tangerine Dream - Phaedra (1974) [Definitive Edition 1995]
Tangerine Dream - Ricochet (1975) [Definitive Edition 1995]
Tangerine Dream - Stratosfear (1976) [Definitive Edition 1995]
Tangerine Dream - Encore (1977) [Original Edition]
Tangerine Dream - Wavelength (1983)
Tangerine Dream - Poland - The Warsaw Concert (1984) [Reissue 2011]
Tangerine Dream - Green Desert (1986) [Reissue 2003]
Tangerine Dream - Underwater Sunlight (1986)
Tangerine Dream - Melrose (1990)
Tangerine Dream - Dead Solid Perfect (OST) (1990)
Tangerine Dream - The Story Of Tangerine Dream (1992)
Tangerine Dream - Quinoa (1992) [Reissue 2009]
Tangerine Dream - Turn of the Tides (1994)
Tangerine Dream - Tyranny Of Beauty (1995)
Tangerine Dream - Antique Dreams (2000)
Tangerine Dream - The Bootleg Box Set Vol. 1 [7CD] (2003)
Tangerine Dream - Arizona Live '92 (2004) [Reissue 2009]
Tangerine Dream - Blue Dawn (2006)
Tangerine Dream - The Essential Tangerine Dream (2006)
Tangerine Dream - The London Eye Concert (2010)
Tangerine Dream - Edgar Allan Poe's The Island Of The Fay (2011)
Tangerine Dream - The Official Bootleg Series Vol.1 [4CD Box Set] (2015)
Tangerine Dream - Live At Coventry Cathedral 1975 (2007) [DVD]
Tangerine Dream - Madcap's Flaming Duty (2007) [DVD]
Tangerine Dream - 35th Phaedra Anniversary Concert (2007) [2DVD]
Edgar Froese - 2 Albums (1974-1995)
Edgar Froese - Ages (1978) [Reissue 1997]
Edgar Froese - Pinnacles (1983)