Tags
Language
Tags

Tangerine Dream - Tyranny Of Beauty (1995) (Repost)

Posted By: gribovar
Tangerine Dream - Tyranny Of Beauty (1995) (Repost)

Tangerine Dream - Tyranny Of Beauty (1995)
EAC Rip | FLAC (image+.cue+log) - 370 MB | MP3 CBR 320 kbps (LAME 3.93) - 135 MB | Covers - 30 MB
Genre: Traditional Electronic, Berlin School | RAR 3% Rec. | Label: Virgin (7243 840275 2 0)

Tyranny of Beauty is one of Tangerine Dream's best CDs of the early and mid-'90s. That's not saying a lot. The group's albums from that period - and even back into the late '80s - are relatively weak. And, to be sure, this disc has its weaknesses. However, they are overshadowed by its strengths, and the disc earns high praise. The TD lineup for this CD is Edgar Froese, Linda Spa, and Jerome Froese. Mark Horn and Gerald Gradwohl contribute various guitar performances. Those performances are the keys to this disc's merit. Gradwohl's lead guitar spots play off and to Edgar Froese's lead guitar. The sparring adds clout to the atmospheres. The atmospheres, in turn, build upon each other and create a grand soundscape. The strongest track is "Stratosfear 1995," a redesign of the Virgin era standard. This CD is a return to the basics with polish and tact. It is essential Berlin school electronica.
Tracklist:
01. Catwalk
02. Birdwatcher's Dream
03. Little Blond In The Park Of Attractions
04. Living In A Fountain Ren
05. Stratosfear 1995
06. Bride In Cold Tears
07. Haze Of Fame
08. Tyranny Of Beauty
09. Largo

Total time: 57:30

Exact Audio Copy V0.99 prebeta 4 from 23. January 2008

EAC extraction logfile from 17. January 2009, 14:25

Tangerine Dream / Tyranny Of Beauty

Used drive : TEAC CD-W540E Adapter: 1 ID: 1

Read mode : Secure
Utilize accurate stream : Yes
Defeat audio cache : Yes
Make use of C2 pointers : No

Read offset correction : 686
Overread into Lead-In and Lead-Out : No
Fill up missing offset samples with silence : Yes
Delete leading and trailing silent blocks : No
Null samples used in CRC calculations : Yes
Used interface : Native Win32 interface for Win NT & 2000

Used output format : Internal WAV Routines
Sample format : 44.100 Hz; 16 Bit; Stereo


TOC of the extracted CD

Track | Start | Length | Start sector | End sector
––––––––––––––––––––––––––––-
1 | 0:00.00 | 7:19.42 | 0 | 32966
2 | 7:19.42 | 6:52.38 | 32967 | 63904
3 | 14:12.05 | 6:57.30 | 63905 | 95209
4 | 21:09.35 | 6:59.62 | 95210 | 126696
5 | 28:09.22 | 5:08.73 | 126697 | 149869
6 | 33:18.20 | 4:53.67 | 149870 | 171911
7 | 38:12.12 | 8:30.28 | 171912 | 210189
8 | 46:42.40 | 6:35.02 | 210190 | 239816
9 | 53:17.42 | 4:12.28 | 239817 | 258744


Range status and errors

Selected range

Filename D:\EAC\Tangerine Dream - Tyranny Of Beauty.wav

Peak level 98.9 %
Range quality 100.0 %
Test CRC 4742BFB3
Copy CRC 4742BFB3
Copy OK

No errors occurred


AccurateRip summary

Track 1 accurately ripped (confidence 4) [9B36AE90]
Track 2 accurately ripped (confidence 4) [1E9D745E]
Track 3 accurately ripped (confidence 4) [2495A5EA]
Track 4 accurately ripped (confidence 4) [4DE166EC]
Track 5 accurately ripped (confidence 4) [0FEB4C87]
Track 6 accurately ripped (confidence 4) [C01B9D0F]
Track 7 accurately ripped (confidence 4) [3FE2059F]
Track 8 accurately ripped (confidence 4) [1415EC30]
Track 9 accurately ripped (confidence 4) [8EFE3AB8]

All tracks accurately ripped

End of status report

[CUETools log; Date: 15.10.2017 23:00:36; Version: 2.1.4]
[CTDB TOCID: StrlI2H_zQiTM_.8EWD3..D3lr0-] found.
Track | CTDB Status
1 | ( 59/129) Accurately ripped
2 | ( 61/129) Accurately ripped
3 | ( 53/129) Accurately ripped
4 | ( 61/129) Accurately ripped
5 | ( 61/129) Accurately ripped
6 | ( 59/129) Accurately ripped
7 | ( 61/129) Accurately ripped
8 | ( 61/129) Accurately ripped
9 | ( 61/129) Accurately ripped
[AccurateRip ID: 001496c1-009590ae-6f0d7909] found.
Track [ CRC | V2 ] Status
01 [9b36ae90|b82c8624] (015+025/120) Accurately ripped
02 [1e9d745e|df8522dd] (016+024/120) Accurately ripped
03 [2495a5ea|11398c90] (015+020/115) Accurately ripped
04 [4de166ec|5894faf4] (015+024/118) Accurately ripped
05 [0feb4c87|f15b3e33] (015+025/118) Accurately ripped
06 [c01b9d0f|f323c52f] (015+024/118) Accurately ripped
07 [3fe2059f|25e29fc2] (015+024/115) Accurately ripped
08 [1415ec30|889b7589] (015+023/115) Accurately ripped
09 [8efe3ab8|e93edd3e] (015+024/115) Accurately ripped
Offsetted by -1123:
01 [35388709] (000/120) No match (V2 was not tested)
02 [8d712040] (000/120) No match (V2 was not tested)
03 [d2eb4e39] (000/115) No match (V2 was not tested)
04 [f2fd8588] (000/118) No match (V2 was not tested)
05 [c6a95f5c] (000/118) No match (V2 was not tested)
06 [3773ae04] (000/118) No match (V2 was not tested)
07 [74c55e23] (000/115) No match (V2 was not tested)
08 [5a742251] (000/115) No match (V2 was not tested)
09 [f5921432] (000/115) No match (V2 was not tested)
Offsetted by 1195:
01 [18d7b5bf] (000/120) No match
02 [9084d14c] (000/120) No match
03 [f3d96333] (000/115) No match (V2 was not tested)
04 [db473db0] (000/118) No match
05 [14b2b4ba] (000/118) No match (V2 was not tested)
06 [8ccb9422] (000/118) No match
07 [35a6ecbb] (000/115) No match
08 [9500c5f7] (000/115) No match
09 [06d2a221] (000/115) No match

Track Peak [ CRC32 ] [W/O NULL] [ LOG ]
– 98,9 [4742BFB3] [F01FE9FF] CRC32
01 98,1 [28445F4C] [CA7D15C2]
02 98,0 [D5F35CAD] [60C22044]
03 98,8 [8AE5E510] [36B4759B]
04 98,7 [67CE567F] [BF2230D5]
05 98,0 [BC13DC6D] [9AE885C8]
06 98,6 [F4FFBEBB] [A9DB57FA]
07 98,4 [1E1A8D49] [0258C1B9]
08 98,9 [5C79149B] [37D5C674]
09 98,0 [F69A790F] [72F979C0]

Thanks to Witaly70