Tags
Language
Tags

Tangerine Dream - Views From A Red Train (2008) (Repost)

Posted By: gribovar
Tangerine Dream - Views From A Red Train (2008) (Repost)

Tangerine Dream - Views From A Red Train (2008)
EAC Rip | APE (image+.cue+log) - 478 MB | MP3 CBR 320 kbps (LAME 3.93) - 183 MB | Covers included
Genre: Progressive Electronic | RAR 3% Rec. | Label: Eastgate Music (027 CD)

In a sense, Tangerine Dream's 2008 album, "Views from a Red Train", is an updated version of Edgar Froese's solo album "Macula Transfer" of 1976 in that many of the tracks were composed by Froese whilst killing time on the road, either in airport departure lounges, motel rooms, or simply visiting tourist spots. Happily, the result this time is an altogether more mature and developed affair, even than the solo album's 2005 rehash. The new album benefits hugely from substantial contributions from regular TD collaborating artists in addition to the composer: Bernhard Beibl provides characteristically flashy and flamboyant guitar work on a handful of tracks, complementing Edgar Froese's own intoxicating melodic riffs to perfection; Iris Camaa adds her own brand of electronic percussion in places (most noticeably in 'Hunter Shot by a Yellow Rabbit' and 'Fire on the Mountain'), while Thorsten Quaeschning's power drumming features on a couple of tracks ('Leviathan" and 'One Night in Space') and Linda Spa provides a couple of backing horn and soprano sax additions. The Danube Choir, Vienna, as well as the W.A.M. Cello Quartet of Bratislava, each provide the album with a source of samples which lend a chamber music feel at times.
Tracklist:
01. Carmel Calif
02. Passing All Signs
03. Leviathan
04. Hunter Shot By A Yellow Rabbit
05. Nutshell Awakening
06. One Night In Space
07. Serpent Magique
08. Lord Of The Ants
09. Fire On The Mountain
10. Sound Of A Shell

Total time: 01:17:18

Exact Audio Copy V0.99 prebeta 5 from 4. May 2009

EAC extraction logfile from 22. January 2010, 20:34

Tangerine Dream / Views From A Red Train

Used drive : ASUS DRW-2014S1 Adapter: 0 ID: 0

Read mode : Secure
Utilize accurate stream : Yes
Defeat audio cache : Yes
Make use of C2 pointers : No

Read offset correction : 6
Overread into Lead-In and Lead-Out : No
Fill up missing offset samples with silence : Yes
Delete leading and trailing silent blocks : No
Null samples used in CRC calculations : Yes
Used interface : Native Win32 interface for Win NT & 2000

Used output format : Internal WAV Routines
Sample format : 44.100 Hz; 16 Bit; Stereo


TOC of the extracted CD

Track | Start | Length | Start sector | End sector
––––––––––––––––––––––––––––-
1 | 0:00.00 | 7:32.25 | 0 | 33924
2 | 7:32.25 | 6:14.06 | 33925 | 61980
3 | 13:46.31 | 7:01.22 | 61981 | 93577
4 | 20:47.53 | 9:32.74 | 93578 | 136551
5 | 30:20.52 | 6:37.60 | 136552 | 166386
6 | 36:58.37 | 6:55.64 | 166387 | 197575
7 | 43:54.26 | 9:20.15 | 197576 | 239590
8 | 53:14.41 | 9:40.40 | 239591 | 283130
9 | 62:55.06 | 7:41.03 | 283131 | 317708
10 | 70:36.09 | 6:41.56 | 317709 | 347839


Range status and errors

Selected range

Filename D:\EAC\Tangerine Dream - Views From A Red Train.wav

Peak level 98.8 %
Range quality 100.0 %
Test CRC E2765E8E
Copy CRC E2765E8E
Copy OK

No errors occurred


AccurateRip summary

Track 1 accurately ripped (confidence 4) [0425DC90]
Track 2 accurately ripped (confidence 4) [31452C8C]
Track 3 accurately ripped (confidence 4) [265AA20D]
Track 4 accurately ripped (confidence 4) [6CF7700B]
Track 5 accurately ripped (confidence 4) [D4BEC042]
Track 6 accurately ripped (confidence 4) [239126BA]
Track 7 accurately ripped (confidence 4) [6118E2BA]
Track 8 accurately ripped (confidence 4) [DD14F000]
Track 9 accurately ripped (confidence 4) [A631797B]
Track 10 accurately ripped (confidence 4) [3B35A310]

All tracks accurately ripped

End of status report

[CUETools log; Date: 11.12.2017 18:20:40; Version: 2.1.4]
[CTDB TOCID: PHBlXmQVgRTP5v7D1Y8FvU8W9RA-] found.
Track | CTDB Status
1 | (20/20) Accurately ripped
2 | (20/20) Accurately ripped
3 | (20/20) Accurately ripped
4 | (20/20) Accurately ripped
5 | (20/20) Accurately ripped
6 | (20/20) Accurately ripped
7 | (20/20) Accurately ripped
8 | (19/20) Accurately ripped
9 | (20/20) Accurately ripped
10 | (20/20) Accurately ripped
[AccurateRip ID: 001ca8fe-00e75489-91121d0a] found.
Track [ CRC | V2 ] Status
01 [0425dc90|a513d698] (08+02/17) Accurately ripped
02 [31452c8c|287c8254] (08+02/17) Accurately ripped
03 [265aa20d|540410af] (08+02/17) Accurately ripped
04 [6cf7700b|6b66eb7b] (08+02/17) Accurately ripped
05 [d4bec042|299b2ea4] (08+02/17) Accurately ripped
06 [239126ba|7a212392] (08+02/17) Accurately ripped
07 [6118e2ba|a460d3eb] (08+02/17) Accurately ripped
08 [dd14f000|b07ca68b] (08+02/17) Accurately ripped
09 [a631797b|157f3a05] (08+02/16) Accurately ripped
10 [3b35a310|78d3dbeb] (08+02/17) Accurately ripped
Offsetted by -18:
01 [71e6044c] (02/17) Accurately ripped
02 [3d43c6ae] (02/17) Accurately ripped
03 [0f929acb] (02/17) Accurately ripped
04 [9c967883] (02/17) Accurately ripped
05 [9e19ccb2] (02/17) Accurately ripped
06 [b0132c2c] (02/17) Accurately ripped
07 [4bcaa5d4] (02/17) Accurately ripped
08 [9fe50b9c] (02/17) Accurately ripped
09 [49869f23] (02/16) Accurately ripped
10 [1db0d84a] (02/17) Accurately ripped

Track Peak [ CRC32 ] [W/O NULL] [ LOG ]
– 98,8 [E2765E8E] [CEC49C32] CRC32
01 98,8 [9C7A7D42] [C36DB111]
02 98,8 [EB967D00] [606C84BB]
03 98,8 [DACDB378] [8EFAF148]
04 98,8 [7CE157E2] [B48751D7]
05 98,8 [9CE7FA35] [CE5D9B4E]
06 98,8 [FE609503] [64928F6F]
07 98,8 [31E72CD1] [F47F1EC0]
08 96,6 [C111500A] [6AEDBF1F]
09 98,8 [EAF6EC1F] [CB0E799D]
10 98,8 [F5F8036D] [C9B0BFD2]

Thanks to original releaser