Tags
Language
Tags

Tangerine Dream - Wavelength [OST] (1983)

Posted By: gribovar
Tangerine Dream - Wavelength [OST] (1983)

Tangerine Dream - Wavelength [OST] (1983)
EAC Rip | FLAC (tracks+.cue+log) - 223 MB | MP3 CBR 320 kbps (LAME 3.93) - 93 MB | Covers included
Genre: Electronic, Berlin School, Soundtrack | RAR 3% Rec. | Label: Varese Sarabande (VCD 47223)

Tangerine Dream's 'Wavelength' is the soundtrack to an obscure Robert Carradine sci-fi film from 1983, and while it offered nothing truly fresh or groundbreaking from the band, it's still makes for a fine background listen while offering several variations of spacey/electronic ambience. Composed by the trio of Edgar Froese, Christopher Franke and Johannes Schmoelling, considering the albums around it such as 'Hyperborea', 'White Eagle' etc, 'Wavelength' still features the ghostly Melloton, as well as having a distinct mid-70's TD period sound instead of the cold plastic 80's that was emerging during that time. It's mostly comprised of short little interludes and snippets which unfortunately means that many of the tracks rarely get time to develop better, and some sections are reworked pieces from previous albums, but generally if you let the album play in it's entirety, it makes for an undemanding listen of eerie electronic music, and it's certainly far from being one of the worst releases in the band's long discography.

Tracklist:
01. Alien Voices
02. Wavelength Main Title
03. Desert Drive
04. Mojave End Title
05. Healing
06. Breakout
07. Alien Goodbyes
08. Spaceship
09. Church Theme
10. Sunset Drive
11. Airshaft
12. Alley Walk
13. Cyro Lab
14. Running Through the Hills
15. Campfire Theme
16. Mojave End Title Reprise

Total time: 39:01

Exact Audio Copy V1.0 beta 3 from 29. August 2011

EAC extraction logfile from 15. September 2012, 23:04

Tangerine Dream / Wavelength

Used drive : TSSTcorpCDDVDW SH-222AL Adapter: 0 ID: 3

Read mode : Secure
Utilize accurate stream : Yes
Defeat audio cache : Yes
Make use of C2 pointers : No

Read offset correction : 6
Overread into Lead-In and Lead-Out : No
Fill up missing offset samples with silence : Yes
Delete leading and trailing silent blocks : No
Null samples used in CRC calculations : Yes
Used interface : Native Win32 interface for Win NT & 2000
Gap handling : Appended to previous track

Used output format : User Defined Encoder
Selected bitrate : 1024 kBit/s
Quality : High
Add ID3 tag : No
Command line compressor : C:\Program Files (x86)\Exact Audio Copy\Flac\flac.exe
Additional command line options : -8 -V -T "ARTIST=%artist%" -T "TITLE=%title%" -T "ALBUM=%albumtitle%" -T "DATE=%year%" -T "TRACKNUMBER=%tracknr%" -T "GENRE=%genre%" -T "PERFORMER=%albuminterpret%" -T "COMPOSER=%composer%" %haslyrics%–tag-from-file=LYRICS="%lyricsfile%"%haslyrics% -T "ALBUMARTIST=%albumartist%" -T "DISCNUMBER=%cdnumber%" -T "TOTALDISCS=%totalcds%" -T "TOTALTRACKS=%numtracks%" -T "COMMENT=%comment%" %source% -o %dest%


TOC of the extracted CD

Track | Start | Length | Start sector | End sector
––––––––––––––––––––––––––––-
1 | 0:00.37 | 0:19.03 | 37 | 1464
2 | 0:19.40 | 1:56.32 | 1465 | 10196
3 | 2:15.72 | 2:04.63 | 10197 | 19559
4 | 4:20.60 | 4:02.72 | 19560 | 37781
5 | 8:23.57 | 2:25.48 | 37782 | 48704
6 | 10:49.30 | 1:13.02 | 48705 | 54181
7 | 12:02.32 | 1:51.03 | 54182 | 62509
8 | 13:53.35 | 2:24.70 | 62510 | 73379
9 | 16:18.30 | 3:46.00 | 73380 | 90329
10 | 20:04.30 | 3:27.00 | 90330 | 105854
11 | 23:31.30 | 3:15.00 | 105855 | 120479
12 | 26:46.30 | 2:57.12 | 120480 | 133766
13 | 29:43.42 | 2:20.28 | 133767 | 144294
14 | 32:03.70 | 1:35.07 | 144295 | 151426
15 | 33:39.02 | 1:27.00 | 151427 | 157951
16 | 35:06.02 | 3:55.35 | 157952 | 175611


Track 1

Filename D:\EAC\Tangerine Dream - Wavelength (1988) [FLAC]\01 - Alien Voices.wav

Pre-gap length 0:00:02.49

Peak level 19.5 %
Extraction speed 0.2 X
Track quality 100.0 %
Test CRC 14201804
Copy CRC 14201804
Accurately ripped (confidence 2) [F72C9800] (AR v2)
Copy OK

Track 2

Filename D:\EAC\Tangerine Dream - Wavelength (1988) [FLAC]\02 - Wavelength Main Title.wav

Peak level 90.5 %
Extraction speed 0.5 X
Track quality 100.0 %
Test CRC F7B7946D
Copy CRC F7B7946D
Accurately ripped (confidence 2) [0F6D6924] (AR v2)
Copy OK

Track 3

Filename D:\EAC\Tangerine Dream - Wavelength (1988) [FLAC]\03 - Desert Drive.wav

Peak level 70.6 %
Extraction speed 0.4 X
Track quality 99.9 %
Test CRC 82E768E1
Copy CRC 82E768E1
Accurately ripped (confidence 2) [8EFCA6A2] (AR v2)
Copy OK

Track 4

Filename D:\EAC\Tangerine Dream - Wavelength (1988) [FLAC]\04 - Mojave End Title.wav

Pre-gap length 0:00:00.53

Peak level 88.8 %
Extraction speed 0.5 X
Track quality 100.0 %
Test CRC 66BAC058
Copy CRC 66BAC058
Accurately ripped (confidence 2) [DB84639B] (AR v2)
Copy OK

Track 5

Filename D:\EAC\Tangerine Dream - Wavelength (1988) [FLAC]\05 - Healing.wav

Pre-gap length 0:00:00.29

Peak level 83.2 %
Extraction speed 0.5 X
Track quality 100.0 %
Test CRC E9127983
Copy CRC E9127983
Accurately ripped (confidence 2) [1E184340] (AR v2)
Copy OK

Track 6

Filename D:\EAC\Tangerine Dream - Wavelength (1988) [FLAC]\06 - Breakout.wav

Pre-gap length 0:00:00.64

Peak level 91.8 %
Extraction speed 0.3 X
Track quality 99.8 %
Test CRC 99C5666D
Copy CRC 99C5666D
Accurately ripped (confidence 2) [6CAC7E8C] (AR v2)
Copy OK

Track 7

Filename D:\EAC\Tangerine Dream - Wavelength (1988) [FLAC]\07 - Alien Goodbyes.wav

Pre-gap length 0:00:00.40

Peak level 98.6 %
Extraction speed 0.4 X
Track quality 100.0 %
Test CRC 6187386A
Copy CRC 6187386A
Accurately ripped (confidence 2) [353AF8C2] (AR v2)
Copy OK

Track 8

Filename D:\EAC\Tangerine Dream - Wavelength (1988) [FLAC]\08 - Spaceship.wav

Pre-gap length 0:00:00.50

Peak level 95.6 %
Extraction speed 0.4 X
Track quality 100.0 %
Test CRC 14F7F639
Copy CRC 14F7F639
Accurately ripped (confidence 2) [EA09A294] (AR v2)
Copy OK

Track 9

Filename D:\EAC\Tangerine Dream - Wavelength (1988) [FLAC]\09 - Church Theme.wav

Pre-gap length 0:00:00.26

Peak level 92.6 %
Extraction speed 0.5 X
Track quality 100.0 %
Test CRC A926C92F
Copy CRC A926C92F
Accurately ripped (confidence 2) [51ED5250] (AR v2)
Copy OK

Track 10

Filename D:\EAC\Tangerine Dream - Wavelength (1988) [FLAC]\10 - Sunset Drive.wav

Pre-gap length 0:00:00.60

Peak level 98.2 %
Extraction speed 0.5 X
Track quality 100.0 %
Test CRC 2FF399E8
Copy CRC 2FF399E8
Accurately ripped (confidence 2) [F199E663] (AR v2)
Copy OK

Track 11

Filename D:\EAC\Tangerine Dream - Wavelength (1988) [FLAC]\11 - Airshaft.wav

Pre-gap length 0:00:00.50

Peak level 90.7 %
Extraction speed 0.4 X
Track quality 100.0 %
Test CRC D526AC07
Copy CRC D526AC07
Accurately ripped (confidence 2) [0939140A] (AR v2)
Copy OK

Track 12

Filename D:\EAC\Tangerine Dream - Wavelength (1988) [FLAC]\12 - Alley Walk.wav

Pre-gap length 0:00:00.73

Peak level 95.4 %
Extraction speed 0.4 X
Track quality 100.0 %
Test CRC F875FC96
Copy CRC F875FC96
Accurately ripped (confidence 2) [AA442D8C] (AR v2)
Copy OK

Track 13

Filename D:\EAC\Tangerine Dream - Wavelength (1988) [FLAC]\13 - Cyro Lab.wav

Peak level 92.9 %
Extraction speed 0.4 X
Track quality 100.0 %
Test CRC 1481D342
Copy CRC 1481D342
Accurately ripped (confidence 2) [802535A9] (AR v2)
Copy OK

Track 14

Filename D:\EAC\Tangerine Dream - Wavelength (1988) [FLAC]\14 - Running Through the Hills.wav

Peak level 89.4 %
Extraction speed 0.4 X
Track quality 100.0 %
Test CRC BB9205D8
Copy CRC BB9205D8
Accurately ripped (confidence 2) [C8D1A933] (AR v2)
Copy OK

Track 15

Filename D:\EAC\Tangerine Dream - Wavelength (1988) [FLAC]\15 - Campfire Theme.wav

Peak level 91.1 %
Extraction speed 0.3 X
Track quality 100.0 %
Test CRC B4A2A035
Copy CRC B4A2A035
Accurately ripped (confidence 2) [A2940CF7] (AR v2)
Copy OK

Track 16

Filename D:\EAC\Tangerine Dream - Wavelength (1988) [FLAC]\16 - Mojave End Title (Reprise).wav

Peak level 99.4 %
Extraction speed 0.4 X
Track quality 100.0 %
Test CRC 2B596E6E
Copy CRC 2B596E6E
Accurately ripped (confidence 2) [140E6A11] (AR v2)
Copy OK


All tracks accurately ripped

No errors occurred

End of status report

==== Log checksum 221CC94F94162B2C5539BB190A83E167ABF4B765ADA1034799DFD29642A7490D ====

[CUETools log; Date: 28.02.2021 16:59:28; Version: 2.1.4]
Pregap length 00:00:37.
[CTDB TOCID: sUZr1jW80B8HnoohUJZhpMLnKrE-] found.
Track | CTDB Status
1 | (81/82) Accurately ripped
2 | (81/82) Accurately ripped
3 | (81/82) Accurately ripped
4 | (81/82) Accurately ripped
5 | (81/82) Accurately ripped
6 | (81/82) Accurately ripped
7 | (81/82) Accurately ripped
8 | (81/82) Accurately ripped
9 | (81/82) Accurately ripped
10 | (81/82) Accurately ripped
11 | (81/82) Accurately ripped
12 | (81/82) Accurately ripped
13 | (81/82) Accurately ripped
14 | (81/82) Accurately ripped
15 | (81/82) Accurately ripped
16 | (80/82) Accurately ripped
[AccurateRip ID: 00152c10-010649c7-b5092510] found.
Track [ CRC | V2 ] Status
01 [b0de8315|f72c9800] (07+06/49) Accurately ripped
02 [4195ef7d|0f6d6924] (07+06/49) Accurately ripped
03 [9015affc|8efca6a2] (07+06/50) Accurately ripped
04 [7a6fefaa|db84639b] (07+06/48) Accurately ripped
05 [e3cef0a1|1e184340] (06+06/49) Accurately ripped
06 [0f5baf97|6cac7e8c] (06+06/49) Accurately ripped
07 [77b73618|353af8c2] (06+06/48) Accurately ripped
08 [8a3c7221|ea09a294] (06+06/49) Accurately ripped
09 [b3b1e204|51ed5250] (06+06/48) Accurately ripped
10 [c49c1c95|f199e663] (06+06/49) Accurately ripped
11 [96583497|0939140a] (06+06/48) Accurately ripped
12 [1b9047ec|aa442d8c] (06+06/48) Accurately ripped
13 [0910e8b9|802535a9] (06+06/48) Accurately ripped
14 [030a11f5|c8d1a933] (06+06/49) Accurately ripped
15 [1db8a0ae|a2940cf7] (06+06/48) Accurately ripped
16 [5f866233|140e6a11] (06+06/48) Accurately ripped
Offsetted by -447:
01 [3a1cf550] (08/49) Accurately ripped
02 [aecc7810] (08/49) Accurately ripped
03 [ffe395ea] (08/50) Accurately ripped
04 [dfe5bbdd] (08/48) Accurately ripped
05 [4dc25a57] (08/49) Accurately ripped
06 [2b588cb5] (08/49) Accurately ripped
07 [66c83a27] (08/48) Accurately ripped
08 [71f8d403] (08/49) Accurately ripped
09 [71fcd980] (08/48) Accurately ripped
10 [94bae3fa] (08/49) Accurately ripped
11 [c7fefb81] (08/48) Accurately ripped
12 [74b9a192] (08/48) Accurately ripped
13 [86567b35] (08/48) Accurately ripped
14 [76ba1489] (08/49) Accurately ripped
15 [e4b65ebc] (08/48) Accurately ripped
16 [f8244ee4] (08/48) Accurately ripped
Offsetted by -286:
01 [424ed6a0] (03/49) Accurately ripped
02 [a47badde] (03/49) Accurately ripped
03 [406cc118] (03/50) Accurately ripped
04 [58467930] (02/48) Accurately ripped
05 [41f1444d] (03/49) Accurately ripped
06 [9a1b4113] (03/49) Accurately ripped
07 [e9bb39d6] (03/48) Accurately ripped
08 [86bcfea5] (03/49) Accurately ripped
09 [1cd6f77c] (03/48) Accurately ripped
10 [d7cd033f] (03/49) Accurately ripped
11 [1376be2b] (03/48) Accurately ripped
12 [75656d00] (03/48) Accurately ripped
13 [db100d41] (03/48) Accurately ripped
14 [499f569d] (03/49) Accurately ripped
15 [b115ae0a] (03/48) Accurately ripped
16 [497a07f5] (03/48) Accurately ripped
Offsetted by 541:
01 [ad9ae424] (02/49) Accurately ripped
02 [7c1b74f4] (02/49) Accurately ripped
03 [1313e672] (03/50) Accurately ripped
04 [3ea383b1] (02/48) Accurately ripped
05 [4e630abf] (03/49) Accurately ripped
06 [91da0a7d] (03/49) Accurately ripped
07 [9717730b] (02/48) Accurately ripped
08 [db257a3b] (03/49) Accurately ripped
09 [92657810] (02/48) Accurately ripped
10 [af8652c6] (03/49) Accurately ripped
11 [d1f29499] (02/48) Accurately ripped
12 [d5965f52] (02/48) Accurately ripped
13 [a01f6935] (02/48) Accurately ripped
14 [b1709bb9] (03/49) Accurately ripped
15 [2d74eac4] (02/48) Accurately ripped
16 [444efb00] (02/48) Accurately ripped

Track Peak [ CRC32 ] [W/O NULL] [ LOG ]
– 99,4 [8922D61D] [EF6CC5DF]
01 19,5 [14201804] [EB469A35] CRC32
02 90,5 [F7B7946D] [3E8E1166] CRC32
03 70,6 [82E768E1] [42EBC78C] CRC32
04 88,8 [66BAC058] [62096FB0] CRC32
05 83,2 [E9127983] [FDFEC1E7] CRC32
06 91,8 [99C5666D] [9B3C5E70] CRC32
07 98,6 [6187386A] [051A9DE3] CRC32
08 95,6 [14F7F639] [F87C303C] CRC32
09 92,6 [A926C92F] [F259714E] CRC32
10 98,2 [2FF399E8] [408A32B4] CRC32
11 90,7 [D526AC07] [C65AD08D] CRC32
12 95,4 [F875FC96] [A9507768] CRC32
13 92,9 [1481D342] [A459AA86] CRC32
14 89,4 [BB9205D8] [73F73868] CRC32
15 91,1 [B4A2A035] [EEDED9D0] CRC32
16 99,4 [2B596E6E] [93A39AF5] CRC32

Thanks to the original releaser

See also:
Tangerine Dream - The Electronic Journey (2010) [10CD Box Set]
Tangerine Dream - The Dream Roots Collection [5CD Box Set] (1996)
Tangerine Dream - Electronic Meditation (1970) [Reissue 1996]
Tangerine Dream - Alpha Centauri (1971) [Reissue 1996]
Tangerine Dream - Alpha Centauri (1971) [Reissue 2011]
Tangerine Dream - Zeit (1972) [Reissue 1996]
Tangerine Dream - Atem (1973) [Reissue 2011]
Tangerine Dream - Phaedra (1974) [Original Edition]
Tangerine Dream - Phaedra (1974) [Definitive Edition 1995]
Tangerine Dream - Rubycon (1975) [Non-remastered, Reissue 1988]
Tangerine Dream - Rubycon (1975) [Definitive Edition 1995]
Tangerine Dream - Ricochet (1975) [Definitive Edition 1995]
Tangerine Dream - Stratosfear (1976) [Definitive Edition 1995]
Tangerine Dream - Encore (1977)
Tangerine Dream - Sorcerer (OST) (1977) [Reissue 2011]
Tangerine Dream - Force Majeure (1979) [Reissue 1995]
Tangerine Dream - Tangram (1980)
Tangerine Dream - Pergamon (1980) [Reissue 1996]
Tangerine Dream - White Eagle (1982) [Reissue 1995]
Tangerine Dream - Logos Live (1982) [Definitive Edition 1995]
Tangerine Dream - Poland - The Warsaw Concert (1984) [Reissue 2011]
Tangerine Dream - Firestarter ...ion Picture Soundtrack] (1984)
Tangerine Dream - Underwater Sunlight (1986) [Reissue 1996]
Tangerine Dream - Legend (OST) (1986) [Reissue 1995]
Tangerine Dream - Tyger (1987) [Reissue 1996]
Tangerine Dream - Three O'Clock High [OST] (1987)
Tangerine Dream - Optical Race (1988)
Tangerine Dream - Live Miles (1988) [Reissue 2003]
Tangerine Dream - Lily On The Beach (1989)
Tangerine Dream - Melrose (1990)
Tangerine Dream - Dead Solid Perfect (OST) (1990)
Tangerine Dream - The Park Is Mine (OST) (1991)
Tangerine Dream - Rockoon (1992) [Reissue 2000]
Tangerine Dream - Deadly Care (OST) (1992)
Tangerine Dream - Quinoa (1992) [Reissue 2009]
Tangerine Dream - Catch Me If You Can (OST) (1994)
Tangerine Dream - Tyranny Of Beauty (1995)
Tangerine Dream - Goblins' Club (1996)
Tangerine Dream - Zoning (OST) (1996)
Tangerine Dream - The Analogue Space Years 1969-1973 (1998)
Tangerine Dream - The Hollywood Years Vol. 1 (1998)
Tangerine Dream - The Hollywood Years Vol. 2 (1998)
Tangerine Dream - Antique Dreams (2000)
Tangerine Dream - Soundmill Navigator (2000)
Tangerine Dream - The Bootleg Box Set Vol. 1 [7CD] (2003)
Tangerine Dream - Purgatorio (2004)
Tangerine Dream - Arizona Live '92 (2004) [Reissue 2009]
Tangerine Dream - Phaedra 2005 (2005) [Japanese Edition 2009]
Tangerine Dream - Cleveland - June 24th 1986 (2005)
Tangerine Dream - Blue Dawn (2006)
Tangerine Dream - The Essential Tangerine Dream (2006)
Tangerine Dream - Plays Tangerine Dream (2006)
Tangerine Dream - Views From A Red Train (2008)
Tangerine Dream - Booster (2008)
Tangerine Dream - Booster Vol. 2 (2008)
Tangerine Dream - The Antholog... Space Years Volume One (2008)
Tangerine Dream - Music For Sports: Cool Races (2009)
Tangerine Dream - Music For Sports: Power And Motion (2009)
Tangerine Dream - DM V (Dream Mixes V) (2010)
Tangerine Dream - The London Eye Concert (2010)
Tangerine Dream - Zeitgeist Concert [3CD Box Set] (2010)
Tangerine Dream - The Virgin Years 1974-1978 [3CD Box Set] (2011)
Tangerine Dream - The Official...ies Vol.1 [4CD Box Set] (2015)
Tangerine Dream - Live At Coventry Cathedral 1975 (2007) [DVD]
Edgar Froese - 2 Albums (1974-1995)
Edgar Froese - Ages (1978) [Reissue 1997]
Edgar Froese - Pinnacles (1983)