Tags
Language
Tags

Tangerine Dream - White Eagle (1982) [Reissue 1995] (Repost)

Posted By: gribovar
Tangerine Dream - White Eagle (1982) [Reissue 1995] (Repost)

Tangerine Dream - White Eagle (1982) [Reissue 1995]
EAC Rip | APE (image+.cue+log) - 231 MB | MP3 CBR 320 kbps (LAME 3.93) - 90 MB | Covers - 59 MB
Genre: Electronic, Berlin School | RAR 3% Rec. | Label: Virgin Records (7243 8 39444 2 2)

Tangerine Dream experiments with an ever-widening lexicon of sound on White Eagle, though the arrangements tend to suffer for it. The album's principle work is "Mojave Plan," a four-movement, 20-minute song that represents some of the darkest music they've recorded in a while. Perhaps it was Edgar Froese's fear of nuclear annihilation that fueled this bleak view of the future, but the piece's effectiveness is undermined by the decision to continually dabble with different sounds. Where earlier extended pieces tended to move the listener from point A to point B, "Mojave Plan" doesn't flow so much as fuse disjointed sections together. The remaining songs are more cohesive, though Christopher Franke's sequencer patterns, while initially intoxicating, remain static here. That's not a problem on the brief "Midnight in Tula"; four minutes of contagious dance music that turns corners as tight as a Polyrock tune is a welcome respite at this point in the album. "Convention of the 24" clocks in at under ten minutes, and is arguably the closest in effect to Tangram et al. The album closes on a pleasant note with "White Eagle," a mesmerizing song that spins on a slightly off-kilter axis while delivering a lovely little melody in the bargain, in some ways suggesting a meeting of Tangerine Dream's sequencer-led journeys and Cluster's playful side. While it's ultimately an uneven work, White Eagle is clearly the sum of its parts, and readily identifiable as the work of Tangerine Dream. Perhaps Froese had relinquished too much of the music to Johannes Schmoelling, whose curiosity for new sounds often comes across as restlessness. Most likely, though, TD wanted to move its music into the modern age. People weren't as likely to sit in a lotus position for 40 minutes as they were in the '70s - a point that Exit acknowledged. Conceptually, the band members fall back on familiar ways with White Eagle, but musically their minds are operating on a more contemporary level. It's not an ideal amalgam, suggesting the band was at a stylistic crossroads.

Tracklist:
01. Mojave Plan
02. Midnight In Tula
03. Convention Of The 24
04. White Eagle

Total time: 38:23

Exact Audio Copy V0.99 prebeta 3 from 28. July 2007

EAC extraction logfile from 3. June 2008, 2:08

Tangerine Dream / White Eagle

Used drive : PIONEER DVD-RW DVR-111 Adapter: 1 ID: 0

Read mode : Secure
Utilize accurate stream : Yes
Defeat audio cache : Yes
Make use of C2 pointers : No

Read offset correction : 48
Overread into Lead-In and Lead-Out : No
Fill up missing offset samples with silence : Yes
Delete leading and trailing silent blocks : No
Null samples used in CRC calculations : Yes
Used interface : Native Win32 interface for Win NT & 2000

Used output format : User Defined Encoder
Selected bitrate : 32 kBit/s
Quality : High
Add ID3 tag : No
Command line compressor : C:\Program Files\Exact Audio Copy1\wapet.exe
Additional command line options : %d -t "Artist=%a" -t "Title=%t" -t "Album=%g" -t "Year=%y" -t "Track=%n" -t "Genre=%m" mac.exe %s %d -c3000 -v


TOC of the extracted CD

Track | Start | Length | Start sector | End sector
––––––––––––––––––––––––––––-
1 | 0:00.32 | 20:09.45 | 32 | 90751
2 | 20:10.02 | 4:00.23 | 90752 | 108774
3 | 24:10.25 | 9:37.22 | 108775 | 152071
4 | 33:47.47 | 4:34.70 | 152072 | 172691


Range status and errors

Selected range

Filename F:\Muz\Tangerine Dream - White Eagle (1982)\Tangerine Dream - White Eagle.wav

Peak level 100.0 %
Range quality 100.0 %
Test CRC E34F3B54
Copy CRC E34F3B54
Copy OK

No errors occurred


AccurateRip summary

Track 1 accurately ripped (confidence 8) [FEF083A7]
Track 2 accurately ripped (confidence 8) [933A9737]
Track 3 accurately ripped (confidence 9) [874E66C0]
Track 4 accurately ripped (confidence 8) [17CC36D5]

All tracks accurately ripped

End of status report

[CUETools log; Date: 08.10.2018 22:48:10; Version: 2.1.4]
Pregap length 00:00:32.
[CTDB TOCID: ie7XeI2s1b7rHEWzQlRFqDI0Xzk-] found.
Track | CTDB Status
1 | (154/156) Accurately ripped, or (1/156) differs in 152 samples @04:54:72
2 | (156/156) Accurately ripped
3 | (156/156) Accurately ripped
4 | (154/156) Accurately ripped
[AccurateRip ID: 00080023-001e34d9-2108fe04] found.
Track [ CRC | V2 ] Status
01 [fef083a7|2bd97549] (045+048/160) Accurately ripped
02 [933a9737|cdfe5306] (046+051/164) Accurately ripped
03 [874e66c0|cdeba031] (048+052/167) Accurately ripped
04 [17cc36d5|5f85c648] (047+050/164) Accurately ripped
Offsetted by -676:
01 [bd500113] (010/160) Accurately ripped
02 [4a7945ff] (010/164) Accurately ripped
03 [83986478] (010/167) Accurately ripped
04 [0078ce1d] (010/164) Accurately ripped
Offsetted by 315:
01 [19bbafd6] (002/160) Accurately ripped
02 [5bc21da1] (002/164) Accurately ripped
03 [50fcf6f6] (002/167) Accurately ripped
04 [ae0726df] (002/164) Accurately ripped
Offsetted by -670:
01 [ca036ac1] (000/160) No match (V2 was not tested)
02 [35e991b3] (000/164) No match (V2 was not tested)
03 [9d613404] (000/167) No match (V2 was not tested)
04 [dc52eb11] (000/164) No match (V2 was not tested)
Offsetted by -667:
01 [505d1f98] (000/160) No match (V2 was not tested)
02 [2ba1b78d] (000/164) No match (V2 was not tested)
03 [2a459bca] (000/167) No match (V2 was not tested)
04 [ca3ff98b] (000/164) No match (V2 was not tested)

Track Peak [ CRC32 ] [W/O NULL] [ LOG ]
– 100,0 [E34F3B54] [DBA229A1] CRC32
01 100,0 [6003E357] [51D856BE]
02 89,8 [4BBE9FC8] [29AA5E60]
03 89,4 [A2908590] [487FFC95]
04 100,0 [2C96A820] [3D99A23A]

Thanks to intellect

See also:

Tangerine Dream - The Electronic Journey (2010) [10CD Box Set]
Tangerine Dream - The Dream Roots Collection [5CD Box Set] (1996)
Tangerine Dream - Electronic Meditation (1970) [Reissue 1996]
Tangerine Dream - Zeit (1972) [Reissue 1996]
Tangerine Dream - Phaedra (1974) [Definitive Edition 1995]
Tangerine Dream - Ricochet (1975) [Definitive Edition 1995]
Tangerine Dream - Stratosfear (1976) [Definitive Edition 1995]
Tangerine Dream - Force Majeure (1979) [Reissue 1995]
Tangerine Dream - Pergamon (1980) [Reissue 1996]
Tangerine Dream - Logos Live (1982) [Definitive Edition 1995]
Tangerine Dream - Legend (OST) (1986) [Reissue 1995]
Tangerine Dream - Optical Race (1988)
Tangerine Dream - Live Miles (1988) [Reissue 2003]
Tangerine Dream - Lily On The Beach (1989)
Tangerine Dream - Melrose (1990)
Tangerine Dream - Dead Solid Perfect (OST) (1990)
Tangerine Dream - The Park Is Mine (OST) (1991)
Tangerine Dream - Deadly Care (OST) (1992)
Tangerine Dream - Quinoa (1992) [Reissue 2009]
Tangerine Dream - Catch Me If You Can (OST) (1994)
Tangerine Dream - Tyranny Of Beauty (1995)
Tangerine Dream - Zoning (OST) (1996)
Tangerine Dream - The Hollywood Years Vol. 1 (1998)
Tangerine Dream - The Hollywood Years Vol. 2 (1998)
Tangerine Dream - Antique Dreams (2000)
Tangerine Dream - Soundmill Navigator (2000)
Tangerine Dream - The Bootleg Box Set Vol. 1 [7CD] (2003)
Tangerine Dream - Purgatorio (2004)
Tangerine Dream - Arizona Live '92 (2004) [Reissue 2009]
Tangerine Dream - Cleveland - June 24th 1986 (2005)
Tangerine Dream - Blue Dawn (2006)
Tangerine Dream - The Essential Tangerine Dream (2006)
Tangerine Dream - Plays Tangerine Dream (2006)
Tangerine Dream - Views From A Red Train (2008)
Tangerine Dream - Booster (2008)
Tangerine Dream - Booster Vol. 2 (2008)
Tangerine Dream - The Antholog... Space Years Volume One (2008)
Tangerine Dream - DM V (Dream Mixes V) (2010)
Tangerine Dream - The London Eye Concert (2010)
Tangerine Dream - Edgar Allan Poe's The Island Of The Fay (2011)
Tangerine Dream - The Virgin Years 1974-1978 [3CD Box Set] (2011)
Tangerine Dream - The Official...ies Vol.1 [4CD Box Set] (2015)
Edgar Froese - 2 Albums (1974-1995)
Edgar Froese - Ages (1978) [Reissue 1997]
Edgar Froese - Pinnacles (1983)