Tags
Language
Tags

Tangerine Dream - Zoning (OST) (1996)

Posted By:
Tangerine Dream - Zoning (OST) (1996)

Tangerine Dream - Zoning (OST) (1996)
EAC Rip | APE (image+.cue+log) - 357 MB | MP3 CBR 320 kbps (LAME 3.93) - 144 MB | Covers - 49 MB
Genre: Traditional Electronic, Berlin School | RAR 3% Rec. | Label: Repertoire Records (REP 4595-WY)

For many years Tangerine Dream have been very much into the soundtrack business, and most of them have been released on CDs. In early 1996 appeared one of their probably most surprising releases. Zoning is a German thriller produced 1986/87, which could be seen on TV screen for a few times only and then disappeared. Without any information before, it had been re-released in the video format nearly ten years later, accompanied by a soundtrack CD with the music of TD used for this video. Edgar Froese had recorded and mixed the whole score in 1994, eight years after TD produced the first version of this soundtrack. Thus, most of the music on this CD sounds quite different from the original film score; the musical style fits more into the previously unreleased material from Edgar Froese's Beyond The Storm. In fact, the track Eyewitness News on Zoning was taken from Beyond The Storm where it had been titled Descent Like A Hawk.
Tracklist:
01. The Conspiracy
02. Skyscraper
03. Headhunter
04. Downtown Chicago
05. Fading And Turning
06. Affluent Society
07. Stairway Affair
08. Good Choice, Bad Timing
09. Bachelor Of Crime
10. Unfit For Consumption
11. Days Of Grief And Glory
12. Eyewitness News
13. Missing Link

Total time: 01:01:06

Exact Audio Copy V0.99 prebeta 5 from 4. May 2009

EAC extraction logfile from 6. December 2009, 2:11

Tangerine Dream / Zoning

Used drive : ASUS DRW-1814BL Adapter: 0 ID: 0

Read mode : Secure
Utilize accurate stream : Yes
Defeat audio cache : Yes
Make use of C2 pointers : No

Read offset correction : 6
Overread into Lead-In and Lead-Out : No
Fill up missing offset samples with silence : Yes
Delete leading and trailing silent blocks : No
Null samples used in CRC calculations : Yes
Used interface : Native Win32 interface for Win NT & 2000

Used output format : Internal WAV Routines
Sample format : 44.100 Hz; 16 Bit; Stereo


TOC of the extracted CD

Track | Start | Length | Start sector | End sector
––––––––––––––––––––––––––––-
1 | 0:00.00 | 5:55.35 | 0 | 26659
2 | 5:55.35 | 4:19.07 | 26660 | 46091
3 | 10:14.42 | 4:13.13 | 46092 | 65079
4 | 14:27.55 | 4:28.32 | 65080 | 85211
5 | 18:56.12 | 3:15.28 | 85212 | 99864
6 | 22:11.40 | 3:08.10 | 99865 | 113974
7 | 25:19.50 | 5:29.65 | 113975 | 138714
8 | 30:49.40 | 4:23.62 | 138715 | 158501
9 | 35:13.27 | 5:16.20 | 158502 | 182221
10 | 40:29.47 | 5:23.35 | 182222 | 206481
11 | 45:53.07 | 5:06.10 | 206482 | 229441
12 | 50:59.17 | 5:14.63 | 229442 | 253054
13 | 56:14.05 | 4:51.70 | 253055 | 274949


Range status and errors

Selected range

Filename D:\EAC\Tangerine Dream - Zoning.wav

Peak level 99.2 %
Range quality 99.9 %
Test CRC 2FC84526
Copy CRC 2FC84526
Copy OK

No errors occurred


AccurateRip summary

Track 1 accurately ripped (confidence 7) [4FDC473B]
Track 2 accurately ripped (confidence 7) [AC9ADE62]
Track 3 accurately ripped (confidence 7) [F513DBEE]
Track 4 accurately ripped (confidence 7) [6AF4C86A]
Track 5 accurately ripped (confidence 7) [6DFF3301]
Track 6 accurately ripped (confidence 7) [E62E23AE]
Track 7 accurately ripped (confidence 7) [FD454248]
Track 8 accurately ripped (confidence 7) [77C629FD]
Track 9 accurately ripped (confidence 7) [2DA803BA]
Track 10 accurately ripped (confidence 7) [0881C259]
Track 11 accurately ripped (confidence 6) [F2A2AB30]
Track 12 accurately ripped (confidence 6) [9241F7BF]
Track 13 accurately ripped (confidence 6) [A36CF900]

All tracks accurately ripped

End of status report

[CUETools log; Date: 02.11.2017 17:03:05; Version: 2.1.4]
[CTDB TOCID: uCvRQMmYVsJjojOsUMtN2Ok9ESw-] found.
Track | CTDB Status
1 | (32/32) Accurately ripped
2 | (32/32) Accurately ripped
3 | (32/32) Accurately ripped
4 | (32/32) Accurately ripped
5 | (32/32) Accurately ripped
6 | (32/32) Accurately ripped
7 | (32/32) Accurately ripped
8 | (32/32) Accurately ripped
9 | (32/32) Accurately ripped
10 | (32/32) Accurately ripped
11 | (32/32) Accurately ripped
12 | (32/32) Accurately ripped
13 | (32/32) Accurately ripped
[AccurateRip ID: 001cb0bc-011ed20f-a70e520d] found.
Track [ CRC | V2 ] Status
01 [4fdc473b|a829dc34] (10+08/23) Accurately ripped
02 [ac9ade62|297c4cbe] (10+08/23) Accurately ripped
03 [f513dbee|0a7d7208] (10+08/23) Accurately ripped
04 [6af4c86a|c28f30f0] (10+08/23) Accurately ripped
05 [6dff3301|6adbc82b] (10+08/23) Accurately ripped
06 [e62e23ae|7e1ce1a1] (10+08/23) Accurately ripped
07 [fd454248|4e78b1e7] (10+08/23) Accurately ripped
08 [77c629fd|89a255c3] (10+08/23) Accurately ripped
09 [2da803ba|1d92fa18] (10+08/23) Accurately ripped
10 [0881c259|4441d1bb] (10+08/23) Accurately ripped
11 [f2a2ab30|ef4da101] (09+08/22) Accurately ripped
12 [9241f7bf|cfd93169] (09+08/22) Accurately ripped
13 [a36cf900|c499c8a8] (09+08/22) Accurately ripped
Offsetted by -148:
01 [f5a4e3a8] (03/23) Accurately ripped
02 [84e7a0b1] (03/23) Accurately ripped
03 [f64d150a] (03/23) Accurately ripped
04 [001b85de] (03/23) Accurately ripped
05 [8b57f401] (03/23) Accurately ripped
06 [59b7d88a] (03/23) Accurately ripped
07 [ed4b8648] (03/23) Accurately ripped
08 [0ca21191] (03/23) Accurately ripped
09 [84fa057e] (03/23) Accurately ripped
10 [80f704b1] (03/23) Accurately ripped
11 [104e4d90] (03/22) Accurately ripped
12 [c3c65b7f] (03/22) Accurately ripped
13 [349f5c30] (03/22) Accurately ripped

Track Peak [ CRC32 ] [W/O NULL] [ LOG ]
– 99,2 [2FC84526] [C88766FF] CRC32
01 99,2 [F82FFDAC] [B07D4E0B]
02 99,2 [BCFA216E] [07C647E5]
03 98,4 [216B17DB] [A64F0BA4]
04 96,1 [B00FD979] [3B620D96]
05 99,2 [C5DCB533] [57E45818]
06 99,2 [F67C5891] [17BA3108]
07 97,7 [1DECEAB8] [1CECE4D9]
08 99,2 [72605414] [93AB4166]
09 91,9 [2235B8BB] [AC32DAE8]
10 99,2 [47A8741B] [1C0B02CE]
11 63,9 [D9ABFC3C] [99E89104]
12 99,2 [C8E7E4D3] [C7E36A2C]
13 99,2 [ECE94789] [FD1081ED]

Thanks to the original releaser