Tags
Language
Tags

Tania Maria - Brazil With My Soul (1978) {Universal}

Posted By: tiburon
Tania Maria - Brazil With My Soul (1978) {Universal}

Tania Maria - Brazil With My Soul (1978) {Universal}
EAC 0.99pb4 | FLAC Image level 8 | Cue+Log | Full Scans 300dpi | 239MB + 5% Recovery
MP3 CBR 320 Kbps | 107MB + 5% Recovery
Genre: Brazilian Jazz, Vocal Jazz, Bossa Nova, Post-Bop

Tania Maria's debut is a mix of hushed bossa numbers and up-tempo, jazz-inflected sambas that show off the prowess of her nine-piece band. "Zé," which belongs to the latter category, is an original tune that begins with Maria's slightly over-the-top scatting and builds into a kickin' samba jam; on "Para Chick," a Tom Jobim instrumental, the group is at its most improvisational, with Maria herself (on piano) dishing out some fine solos; and on the tempo-shifting "Ideias E Ideias," Maria manages to sound like Astrud Gilberto and Ella Fitzgerald within the span of a few chord changes. Though it's heavy on the standard bossa/samba fare, it's also a uniformly solid album and a fine introduction to Maria's catalog.
Track List
1. Tatiana 4:36
2. Passarella 4:02
3. Pecados Meus 4:57
4. Rua 17b 3:39
5. Zé 3:56
6. Eu Fui à Europa 4:21
7. Retrato Em Branco E Preto 5:02
8. Para Chick 6:04
9. Ideias E Ideais 3:59

musicians
Tania Maria — Piano, Vocals
Hubert Varron — Cello
Alfred Housepian — Trumpet, Fluegelhorn
Alain Hatot — Flute, Sax (Tenor)
Zeaito — Electric Bass
J.J.Jenny-Clark — Double Bass
Aldo Romano — Drums
Passarinho — Drums
L.C.Fuina — Drums, Percussion
Clovis Lobao — Percussion


Exact Audio Copy V0.99 prebeta 4 from 23. January 2008

EAC extraction logfile from 12. March 2009, 17:51

Tania Maria / Brazil With My Soul

Used drive : HL-DT-STRW/DVD GCC-4242N Adapter: 1 ID: 0

Read mode : Secure
Utilize accurate stream : Yes
Defeat audio cache : Yes
Make use of C2 pointers : Yes

Read offset correction : 102
Overread into Lead-In and Lead-Out : No
Fill up missing offset samples with silence : Yes
Delete leading and trailing silent blocks : No
Null samples used in CRC calculations : Yes
Used interface : Native Win32 interface for Win NT & 2000

Used output format : Internal WAV Routines
Sample format : 44.100 Hz; 16 Bit; Stereo


TOC of the extracted CD

Track | Start | Length | Start sector | End sector
––––––––––––––––––––––––––––-
1 | 0:00.00 | 4:36.41 | 0 | 20740
2 | 4:36.41 | 4:03.22 | 20741 | 38987
3 | 8:39.63 | 4:58.23 | 38988 | 61360
4 | 13:38.11 | 3:40.01 | 61361 | 77861
5 | 17:18.12 | 3:56.00 | 77862 | 95561
6 | 21:14.12 | 4:20.71 | 95562 | 115132
7 | 25:35.08 | 5:02.32 | 115133 | 137814
8 | 30:37.40 | 6:04.18 | 137815 | 165132
9 | 36:41.58 | 3:59.63 | 165133 | 183120


Range status and errors

Selected range

Filename C:\_\EAC_Out\Out\Tania Maria - Brazil With My Soul\Tania Maria - Brazil With My Soul.wav

Peak level 97.1 %
Range quality 100.0 %
Copy CRC DD442B86
Copy OK

No errors occurred


AccurateRip summary

Track 1 not present in database
Track 2 not present in database
Track 3 not present in database
Track 4 not present in database
Track 5 not present in database
Track 6 not present in database
Track 7 not present in database
Track 8 not present in database
Track 9 not present in database

None of the tracks are present in the AccurateRip database

End of status report


foobar2000 1.3.13 / Dynamic Range Meter 1.1.1
log date: 2020-02-23 15:57:18

––––––––––––––––––––––––––––––––––––––––
Analyzed: Tania Maria / Brazil With My Soul
––––––––––––––––––––––––––––––––––––––––

DR Peak RMS Duration Track
––––––––––––––––––––––––––––––––––––––––
DR15 -0.29 dB -18.56 dB 4:37 01-Tatiana
DR13 -0.37 dB -16.94 dB 4:03 02-Passarella
DR14 -0.31 dB -18.10 dB 4:58 03-Pecados Meus
DR13 -2.81 dB -19.89 dB 3:40 04-Rua 17b
DR12 -0.61 dB -15.90 dB 3:56 05-Z?
DR15 -0.25 dB -18.58 dB 4:21 06-Eu Fui A Europa
DR12 -2.54 dB -19.66 dB 5:02 07-Retrato Em Branco E Preto
DR15 -2.86 dB -20.94 dB 6:04 08-Para Chick
DR12 -0.73 dB -15.89 dB 4:00 09-Ideias E Ideais
––––––––––––––––––––––––––––––––––––––––

Number of tracks: 9
Official DR value: DR13

Samplerate: 44100 Hz
Channels: 2
Bits per sample: 16
Bitrate: 773 kbps
Codec: FLAC
================================================================================

Tania Maria - Brazil With 			  		  		  	 			   		  	   		  		  		  		  	 			   		  	   		 	    		  	   	 			   		  	   		      		 	  			 My Soul (1978) {Universal}
Tania Maria - Brazil With My Soul (1978) {Universal}


Thanks to the original ripper