Subcategories

Tania Maria - No Comment (1995) {TKM Records}

Posted By: tiburon
Tania Maria - No Comment (1995) {TKM Records}

Tania Maria - No Comment (1995) {TKM Records}
EAC 0.95b4 | FLAC tracks level 8 | Cue+Log+M3U | Full Scans 600dpi | 366MB + 5% Recovery
Genre: Brazilian Jazz, Vocal Jazz

Brazilian jazz vocalist and pianist Tania Maria's career has spanned over three decades, starting when she was just 13 and she fronted a band of professional musicians organized by her father, who was a metal worker and gifted amateur musician. He had encouraged her to study piano so that she could accompany him on his weekend jam sessions, but her musical talent grew beyond those small performances. Maria's four sisters also had musical talents, but they eventually grew from their impoverished roots to become professionals, a path that Maria was on herself as well. She attended law school for two years, then married and had a family. The pull of music was too strong, however, and in 1971 she released her first album in Brazil, Olha Quem Chega.
Track List
01. Pelham Melody 4:32
02. Liquid Groove 4:06
03. Keep In Mind 4:39
04. Desire 4:02
05. Marvin My Love 3:45
06. Who Knows? 3:31
07. Jack Hammer 4:45
08. Gotcha 5:12
09. Fanatic 8:30
10. Bali 8:38
11. Something For Now 3:16

musicians
Tania Maria - vocals, keyboards
Don Alias - percussion
Sergio Brandao - bass
Sammy Figueroa - percussion
Tom Kennedy - bass
Portinho - drums
Ricky Sebastian - drums
Mitch Stein - guitar

Produced by Eric Kressmann


EAC extraction logfile from 18. February 2007, 22:20 for CD
Tania Maria / No Comment

Used drive : _NEC DVD_RW ND-3550A Adapter: 0 ID: 1
Read mode : Secure with NO C2, accurate stream, disable cache
Read offset correction : 48
Overread into Lead-In and Lead-Out : No

Used output format : C:\Program Files\FLAC\flac.exe (User Defined Encoder)
128 kBit/s
Additional command line options : -V -8 -T "artist=%a" -T "title=%t" -T "album=%g" -T "date=%y" -T "tracknumber=%n" -T "genre=%m" %s

Other options :
Fill up missing offset samples with silence : Yes
Delete leading and trailing silent blocks : No
Installed external ASPI interface


Track 1
Filename D:\music\rip\Tania Maria - No Comment (1995)[FLAC]\01 - Pelham Melody.wav

Pre-gap length 0:00:02.42

Peak level 100.0 %
Track quality 100.0 %
Test CRC 3F7E5DEB
Copy CRC 3F7E5DEB
Copy OK

Track 2
Filename D:\music\rip\Tania Maria - No Comment (1995)[FLAC]\02 - Liquid Groove.wav

Pre-gap length 0:00:00.37

Peak level 100.0 %
Track quality 99.9 %
Test CRC 711BEF0D
Copy CRC 711BEF0D
Copy OK

Track 3
Filename D:\music\rip\Tania Maria - No Comment (1995)[FLAC]\03 - Keep In Mind.wav

Pre-gap length 0:00:01.42

Peak level 100.0 %
Track quality 99.9 %
Test CRC B3D42D52
Copy CRC B3D42D52
Copy OK

Track 4
Filename D:\music\rip\Tania Maria - No Comment (1995)[FLAC]\04 - Desire.wav

Pre-gap length 0:00:01.37

Peak level 100.0 %
Track quality 100.0 %
Test CRC D62946A8
Copy CRC D62946A8
Copy OK

Track 5
Filename D:\music\rip\Tania Maria - No Comment (1995)[FLAC]\05 - Marvin My Love.wav

Pre-gap length 0:00:00.29

Peak level 100.0 %
Track quality 100.0 %
Test CRC 863563A8
Copy CRC 863563A8
Copy OK

Track 6
Filename D:\music\rip\Tania Maria - No Comment (1995)[FLAC]\06 - Who Knows.wav

Pre-gap length 0:00:00.04

Peak level 100.0 %
Track quality 100.0 %
Test CRC 763D9EC0
Copy CRC 763D9EC0
Copy OK

Track 7
Filename D:\music\rip\Tania Maria - No Comment (1995)[FLAC]\07 - Jack Hammer.wav

Pre-gap length 0:00:02.00

Peak level 100.0 %
Track quality 100.0 %
Test CRC D1A10DAA
Copy CRC D1A10DAA
Copy OK

Track 8
Filename D:\music\rip\Tania Maria - No Comment (1995)[FLAC]\08 - Gotcha.wav

Pre-gap length 0:00:00.96

Peak level 100.0 %
Track quality 100.0 %
Test CRC 3A60C959
Copy CRC 3A60C959
Copy OK

Track 9
Filename D:\music\rip\Tania Maria - No Comment (1995)[FLAC]\09 - Fanatic.wav

Pre-gap length 0:00:00.66

Peak level 100.0 %
Track quality 100.0 %
Test CRC 908C7F30
Copy CRC 908C7F30
Copy OK

Track 10
Filename D:\music\rip\Tania Maria - No Comment (1995)[FLAC]\10 - Bali.wav

Peak level 100.0 %
Track quality 100.0 %
Test CRC CEB09D71
Copy CRC CEB09D71
Copy OK

Track 11
Filename D:\music\rip\Tania Maria - No Comment (1995)[FLAC]\11 - Something For Now.wav

Pre-gap length 0:00:00.60

Peak level 100.0 %
Track quality 100.0 %
Test CRC 0AA3D0C4
Copy CRC 0AA3D0C4
Copy OK

No errors occured


End of status report


––––––––––––––––––––––––––––––––––––––––
Analyzed: Tania Maria / No Comment
––––––––––––––––––––––––––––––––––––––––

DR Peak RMS Duration Track
––––––––––––––––––––––––––––––––––––––––
DR10 0.00 dB -12.16 dB 4:34 01-Pelham Melody
DR10 0.00 dB -11.20 dB 4:06 02-Liquid Groove
DR11 0.00 dB -12.01 dB 4:40 03-Keep In Mind
DR12 0.00 dB -14.48 dB 4:03 04-Desire
DR10 0.00 dB -12.12 dB 3:45 05-Marvin My Love
DR9 0.00 dB -10.87 dB 3:33 06-Who Knows
DR10 0.00 dB -12.89 dB 4:45 07-Jack Hammer
DR10 0.00 dB -12.42 dB 5:13 08-Gotcha
DR10 0.00 dB -12.06 dB 8:31 09-Fanatic
DR9 0.00 dB -11.06 dB 8:38 10-Bali
DR11 0.00 dB -11.95 dB 3:17 11-Something For Now
––––––––––––––––––––––––––––––––––––––––

Number of tracks: 11
Official DR value: DR10

Samplerate: 44100 Hz
Channels: 2
Bits per sample: 16
Bitrate: 839 kbps
Codec: FLAC
================================================================================

Tania Maria - No Comment (1995) {TKM Records}
Tania Maria - No Comment (1995) {TKM Records}
Tania Maria - No Comment (1995) {TKM Records}


Rip by Musicgate