Subcategories
Tags
Language
Tags

Taylor Dayne - Soul Dancing (1993) {2014, Deluxe Edition}

Posted By: popsakov
Taylor Dayne - Soul Dancing (1993) {2014, Deluxe Edition}

Taylor Dayne - Soul Dancing (1993) {2014, Deluxe Edition}
2CD | EAC Rip | FLAC (Img) + Cue + Log ~ 1,11 Gb | MP3 CBR320 ~ 372 Mb
Full Scans ~ 494 Mb | 01:18:08 + 01:16:31 | RAR 5% Recovery
Dance-Pop, House, Synth-Pop | Cherry Pop #CRPOPD 148

Soul Dancing is the third album by American singer-songwriter Taylor Dayne. It was released in 1993 on Arista Records and peaked at No. 51 on the US Billboard 200. The album includes the hit singles "Send Me a Lover", "I'll Wait", "Say a Prayer", and her rendition of Barry White's "Can't Get Enough of Your Love". The song "I'll Wait" was featured in the 1994 Disney comedy Blank Check.

Taylor Dayne, who was one of the late 1980s/early 1990s most reliable hitmakers, witnessed the end of her streak with her third album, 1993's Soul Dancing. This album was not as ambitious as her previous set, 1989's Can't Fight Fate, which featured dance, rock, and adult contemporary ballads, and it wasn't as dance oriented as her debut, 1988's Tell It to My Heart. Instead, it sort of straddled a muddy, middle ground, in an era when grunge and hip-hop reigned supreme. The album's first single, an excellent, dance-lite take on Barry White's "Can't Get Enough of Your Love," managed to crack the Top 20, but there were no more big hits to follow. The next single, "Send Me a Lover," managed to peak at a lowly number 50, yet, in retrospect, stands as one of Dayne's finest moments, and was later covered by Celine Dion. There are a few standout dance tracks, as well as some of the artist's signature styled, soaring, emotional ballads, including the Diane Warren penned "Dance With a Stranger" and the Keith Washington duet "Door to Your Heart." "I'll Wait," another fine moment from this set, managed to bubble under and become a dance hit, as did "Say a Prayer" several years later. Unfortunately, however, this overlooked album signaled the end of Taylor Dayne's hit streak.

~ Jose F. Promis, All Music

***************

Track List CD1:

01. I'll Wait [4:44]
02. Send Me A Lover [4:28]
03. Can't Get Enough Of Your Love [4:27]
04. Say A Prayer [5:23]
05. Dance With A Stranger [4:29]
06. I Could Be Good For You [4:26]
07. Soul Dancing [4:35]
08. The Door To Your Heart [4:11]
09. Someone Like You [3:50]
10. Memories [4:45]
11. If You Were Mine [5:01]
12. Let's Spend The Night Together [5:35]
13. Original Sin (Theme From 'The Shadow') [Radio Mix] [5:53]
14. I'll Wait [Hot Mix] [4:17]
15. Say A Prayer [Boss Edit] [4:00]
16. Tell It To My Heart [T-Empo Radio Edit] [3:49]
17. I'll Wait [4 Minutes Of Soul] [4:21]

Exact Audio Copy V1.1 from 23. June 2015

EAC extraction logfile from 17. February 2021, 12:58

Taylor Dayne / Soul Dancing (Deluxe Edition): Disc One

Used drive : MATSHITADVD+-RW SW830 Adapter: 1 ID: 0

Read mode : Secure
Utilize accurate stream : Yes
Defeat audio cache : Yes
Make use of C2 pointers : No

Read offset correction : 6
Overread into Lead-In and Lead-Out : No
Fill up missing offset samples with silence : Yes
Delete leading and trailing silent blocks : No
Null samples used in CRC calculations : Yes
Used interface : Native Win32 interface for Win NT & 2000

Used output format : User Defined Encoder
Selected bitrate : 768 kBit/s
Quality : High
Add ID3 tag : No
Command line compressor : C:\Program Files (x86)\Exact Audio Copy\FLAC\FLAC.EXE
Additional command line options : -6 -V -T "ARTIST=%artist%" -T "TITLE=%title%" -T "ALBUM=%albumtitle%" -T "DATE=%year%" -T "TRACKNUMBER=%tracknr%" -T "GENRE=%genre%" -T "COMMENT=%comment%" -T "BAND=%albuminterpret%" -T "ALBUMARTIST=%albuminterpret%" -T "COMPOSER=%composer%" %haslyrics%–tag-from-file=LYRICS="%lyricsfile%"%haslyrics% -T "DISCNUMBER=%cdnumber%" -T "TOTALDISCS=%totalcds%" -T "TOTALTRACKS=%numtracks%" %hascover%–picture="%coverfile%"%hascover% %source% -o %dest%


TOC of the extracted CD

Track | Start | Length | Start sector | End sector
––––––––––––––––––––––––––––-
1 | 0:00.00 | 4:43.68 | 0 | 21292
2 | 4:43.68 | 4:27.73 | 21293 | 41390
3 | 9:11.66 | 4:26.29 | 41391 | 61369
4 | 13:38.20 | 5:22.59 | 61370 | 85578
5 | 19:01.04 | 4:28.42 | 85579 | 105720
6 | 23:29.46 | 4:25.39 | 105721 | 125634
7 | 27:55.10 | 4:34.48 | 125635 | 146232
8 | 32:29.58 | 4:10.47 | 146233 | 165029
9 | 36:40.30 | 3:49.41 | 165030 | 182245
10 | 40:29.71 | 4:44.51 | 182246 | 203596
11 | 45:14.47 | 5:00.51 | 203597 | 226147
12 | 50:15.23 | 5:34.53 | 226148 | 251250
13 | 55:50.01 | 5:52.52 | 251251 | 277702
14 | 61:42.53 | 4:16.31 | 277703 | 296933
15 | 65:59.09 | 3:59.44 | 296934 | 314902
16 | 69:58.53 | 3:48.66 | 314903 | 332068
17 | 73:47.44 | 4:20.27 | 332069 | 351595


Range status and errors

Selected range

Filename C:\Users\Boris\Desktop\lossless\TayDay93-14\CD1\Taylor Dayne - Soul Dancing (Deluxe Edition)- Disc One.wav

Peak level 100.0 %
Extraction speed 3.5 X
Range quality 100.0 %
Test CRC C2D1E26C
Copy CRC C2D1E26C
Copy OK

No errors occurred


AccurateRip summary

Track 1 accurately ripped (confidence 8) [464B97C4] (AR v2)
Track 2 accurately ripped (confidence 7) [418485CF] (AR v2)
Track 3 accurately ripped (confidence 8) [E8C0A3AA] (AR v2)
Track 4 accurately ripped (confidence 8) [D5C19B32] (AR v2)
Track 5 accurately ripped (confidence 7) [3A6F8B24] (AR v2)
Track 6 accurately ripped (confidence 7) [209E0435] (AR v2)
Track 7 accurately ripped (confidence 8) [F4607F11] (AR v2)
Track 8 accurately ripped (confidence 7) [51D39D8B] (AR v2)
Track 9 accurately ripped (confidence 8) [B3147D5C] (AR v2)
Track 10 accurately ripped (confidence 7) [45821305] (AR v2)
Track 11 accurately ripped (confidence 7) [F6853D7B] (AR v2)
Track 12 accurately ripped (confidence 7) [DEF05949] (AR v2)
Track 13 accurately ripped (confidence 7) [DA5ADEF0] (AR v2)
Track 14 accurately ripped (confidence 8) [E228B728] (AR v2)
Track 15 accurately ripped (confidence 7) [E052E6AD] (AR v2)
Track 16 accurately ripped (confidence 7) [0CEC7982] (AR v2)
Track 17 accurately ripped (confidence 7) [BF049E1F] (AR v2)

All tracks accurately ripped

End of status report

–– CUETools DB Plugin V2.1.6

[CTDB TOCID: g_kchE69ZqBvSutw.Hu96bzAlF4-] found
Submit result: g_kchE69ZqBvSutw.Hu96bzAlF4- has been confirmed
Track | CTDB Status
1 | (12/12) Accurately ripped
2 | (12/12) Accurately ripped
3 | (12/12) Accurately ripped
4 | (12/12) Accurately ripped
5 | (12/12) Accurately ripped
6 | (12/12) Accurately ripped
7 | (12/12) Accurately ripped
8 | (12/12) Accurately ripped
9 | (12/12) Accurately ripped
10 | (12/12) Accurately ripped
11 | (12/12) Accurately ripped
12 | (12/12) Accurately ripped
13 | (12/12) Accurately ripped
14 | (12/12) Accurately ripped
15 | (12/12) Accurately ripped
16 | (12/12) Accurately ripped
17 | (12/12) Accurately ripped


==== Log checksum C130FC2D01440F7B16613394F558677CDF42608A8D9B202B30E11282C15B4453 ====

[CUETools log; Date: 21.02.2021 2:06:15; Version: 2.1.6]
[CTDB TOCID: g_kchE69ZqBvSutw.Hu96bzAlF4-] found.
Track | CTDB Status
1 | (13/13) Accurately ripped
2 | (13/13) Accurately ripped
3 | (13/13) Accurately ripped
4 | (13/13) Accurately ripped
5 | (13/13) Accurately ripped
6 | (13/13) Accurately ripped
7 | (13/13) Accurately ripped
8 | (13/13) Accurately ripped
9 | (13/13) Accurately ripped
10 | (13/13) Accurately ripped
11 | (13/13) Accurately ripped
12 | (13/13) Accurately ripped
13 | (13/13) Accurately ripped
14 | (13/13) Accurately ripped
15 | (13/13) Accurately ripped
16 | (13/13) Accurately ripped
17 | (13/13) Accurately ripped
[AccurateRip ID: 0030a7db-0268893b-cf124f11] found.
Track [ CRC | V2 ] Status
01 [8b34c86d|464b97c4] (0+8/8) Accurately ripped
02 [90826ea5|418485cf] (0+7/7) Accurately ripped
03 [0485dde0|e8c0a3aa] (0+8/8) Accurately ripped
04 [f2debcb4|d5c19b32] (0+8/8) Accurately ripped
05 [c82a3482|3a6f8b24] (0+7/7) Accurately ripped
06 [d2a9353d|209e0435] (0+7/7) Accurately ripped
07 [e9d56327|f4607f11] (0+8/8) Accurately ripped
08 [c1e83b72|51d39d8b] (0+7/7) Accurately ripped
09 [934728c6|b3147d5c] (0+8/8) Accurately ripped
10 [e0741487|45821305] (0+7/7) Accurately ripped
11 [9ff33c1c|f6853d7b] (0+7/7) Accurately ripped
12 [0bd457a1|def05949] (0+7/7) Accurately ripped
13 [dd6519e5|da5adef0] (0+7/7) Accurately ripped
14 [c2dcb28a|e228b728] (0+8/8) Accurately ripped
15 [ea120266|e052e6ad] (0+7/7) Accurately ripped
16 [dd0e6043|0cec7982] (0+7/7) Accurately ripped
17 [819336ee|bf049e1f] (0+7/7) Accurately ripped

Track Peak [ CRC32 ] [W/O NULL] [ LOG ]
– 100,0 [C2D1E26C] [A882BF8A] CRC32
01 99,5 [9580E8AF] [7E789C75]
02 99,0 [D51751D9] [2DA84E4B]
03 99,6 [579F4BFF] [E8D699E8]
04 99,7 [676CCCDC] [36658F29]
05 100,0 [892762EB] [4F59C21B]
06 99,7 [5262CBB7] [E8F8558C]
07 100,0 [BC5C63A6] [5C0CC2DD]
08 98,9 [07ADEBCD] [64575A44]
09 99,7 [99102BFA] [8DEEB250]
10 99,2 [F8C98945] [90C98123]
11 99,3 [F369DED7] [8AAF7791]
12 100,0 [B858C550] [18FD946E]
13 100,0 [A6CFFA39] [48841E7A]
14 99,8 [6D97207C] [64C7340A]
15 100,0 [24D8D2C4] [A33F5C5D]
16 100,0 [2157B847] [D22268E9]
17 99,8 [10C39E4F] [2F10FD41]

Track List CD2:

01. Can't Get Enough Of Your Love [C+C Special Edition Mix] [6:15]
02. I'll Wait [E-Smoove Vocal Remix] [7:00]
03. Say A Prayer [Boss Club Mix] [7:50]
04. Tell It To My Heart [T-Empo Extended Mix] [8:49]
05. I'll Wait [7 Minutes Of Silk] [7:25]
06. Can't Get Enough Of Your Love [C+C Bass Dub] [4:59]
07. Say A Prayer [Mass Dub] [6:44]
08. Tell It To My Heart [T-Empo Blue Room Dub] [7:15]
09. I'll Wait [Silky Dub Total] [5:50]
10. Say A Prayer [Vission Lorimer Remix] [6:30]
11. Tell It To My Heart [Tony De Vit Club Mix] [7:58]

Exact Audio Copy V1.1 from 23. June 2015

EAC extraction logfile from 17. February 2021, 13:20

Taylor Dayne / Soul Dancing (Deluxe Edition): Disc Two

Used drive : MATSHITADVD+-RW SW830 Adapter: 1 ID: 0

Read mode : Secure
Utilize accurate stream : Yes
Defeat audio cache : Yes
Make use of C2 pointers : No

Read offset correction : 6
Overread into Lead-In and Lead-Out : No
Fill up missing offset samples with silence : Yes
Delete leading and trailing silent blocks : No
Null samples used in CRC calculations : Yes
Used interface : Native Win32 interface for Win NT & 2000

Used output format : User Defined Encoder
Selected bitrate : 768 kBit/s
Quality : High
Add ID3 tag : No
Command line compressor : C:\Program Files (x86)\Exact Audio Copy\FLAC\FLAC.EXE
Additional command line options : -6 -V -T "ARTIST=%artist%" -T "TITLE=%title%" -T "ALBUM=%albumtitle%" -T "DATE=%year%" -T "TRACKNUMBER=%tracknr%" -T "GENRE=%genre%" -T "COMMENT=%comment%" -T "BAND=%albuminterpret%" -T "ALBUMARTIST=%albuminterpret%" -T "COMPOSER=%composer%" %haslyrics%–tag-from-file=LYRICS="%lyricsfile%"%haslyrics% -T "DISCNUMBER=%cdnumber%" -T "TOTALDISCS=%totalcds%" -T "TOTALTRACKS=%numtracks%" %hascover%–picture="%coverfile%"%hascover% %source% -o %dest%


TOC of the extracted CD

Track | Start | Length | Start sector | End sector
––––––––––––––––––––––––––––-
1 | 0:00.00 | 6:14.68 | 0 | 28117
2 | 6:14.68 | 6:59.49 | 28118 | 59591
3 | 13:14.42 | 7:49.31 | 59592 | 94797
4 | 21:03.73 | 8:48.69 | 94798 | 134466
5 | 29:52.67 | 7:24.26 | 134467 | 167792
6 | 37:17.18 | 4:58.67 | 167793 | 190209
7 | 42:16.10 | 6:43.27 | 190210 | 220461
8 | 48:59.37 | 7:14.24 | 220462 | 253035
9 | 56:13.61 | 5:49.44 | 253036 | 279254
10 | 62:03.30 | 6:29.37 | 279255 | 308466
11 | 68:32.67 | 7:57.10 | 308467 | 344251


Range status and errors

Selected range

Filename C:\Users\Boris\Desktop\lossless\TayDay93-14\CD2\Taylor Dayne - Soul Dancing (Deluxe Edition)- Disc Two.wav

Peak level 100.0 %
Extraction speed 8.1 X
Range quality 100.0 %
Test CRC C93085F1
Copy CRC C93085F1
Copy OK

No errors occurred


AccurateRip summary

Track 1 accurately ripped (confidence 7) [F853C95B] (AR v2)
Track 2 accurately ripped (confidence 8) [22ECE42A] (AR v2)
Track 3 accurately ripped (confidence 8) [4343A23F] (AR v2)
Track 4 accurately ripped (confidence 8) [45598DBB] (AR v2)
Track 5 accurately ripped (confidence 8) [D2AF3571] (AR v2)
Track 6 accurately ripped (confidence 7) [347E447F] (AR v2)
Track 7 accurately ripped (confidence 7) [7CEF620E] (AR v2)
Track 8 accurately ripped (confidence 7) [8A386783] (AR v2)
Track 9 accurately ripped (confidence 7) [2BD9D7F8] (AR v2)
Track 10 accurately ripped (confidence 7) [4810659A] (AR v2)
Track 11 accurately ripped (confidence 7) [C25ECE23] (AR v2)

All tracks accurately ripped

End of status report

–– CUETools DB Plugin V2.1.6

[CTDB TOCID: 9A_62feZpvolaSqb_bOe7F7_Amk-] found
Submit result: 9A_62feZpvolaSqb_bOe7F7_Amk- has been confirmed
Track | CTDB Status
1 | (11/11) Accurately ripped
2 | (11/11) Accurately ripped
3 | (11/11) Accurately ripped
4 | (11/11) Accurately ripped
5 | (11/11) Accurately ripped
6 | (11/11) Accurately ripped
7 | (11/11) Accurately ripped
8 | (11/11) Accurately ripped
9 | (11/11) Accurately ripped
10 | (11/11) Accurately ripped
11 | (11/11) Accurately ripped


==== Log checksum F8209ED3A0BA907FD1A6CA6ECD78E270017369ECC71304B791AF2FF44E891139 ====

[CUETools log; Date: 21.02.2021 2:11:43; Version: 2.1.6]
[CTDB TOCID: 9A_62feZpvolaSqb_bOe7F7_Amk-] found.
Track | CTDB Status
1 | (12/12) Accurately ripped
2 | (12/12) Accurately ripped
3 | (12/12) Accurately ripped
4 | (12/12) Accurately ripped
5 | (12/12) Accurately ripped
6 | (12/12) Accurately ripped
7 | (12/12) Accurately ripped
8 | (12/12) Accurately ripped
9 | (12/12) Accurately ripped
10 | (12/12) Accurately ripped
11 | (12/12) Accurately ripped
[AccurateRip ID: 001fbec2-01126423-aa11ee0b] found.
Track [ CRC | V2 ] Status
01 [436032ab|f853c95b] (0+7/7) Accurately ripped
02 [92e348ac|22ece42a] (0+8/8) Accurately ripped
03 [e59dd235|4343a23f] (0+8/8) Accurately ripped
04 [cbfa538a|45598dbb] (0+8/8) Accurately ripped
05 [3bc95669|d2af3571] (0+8/8) Accurately ripped
06 [7fc15e72|347e447f] (0+7/7) Accurately ripped
07 [95b9053b|7cef620e] (0+7/7) Accurately ripped
08 [01d24934|8a386783] (0+7/7) Accurately ripped
09 [5b304391|2bd9d7f8] (0+7/7) Accurately ripped
10 [4e44a5b5|4810659a] (0+7/7) Accurately ripped
11 [c01664e6|c25ece23] (0+7/7) Accurately ripped

Track Peak [ CRC32 ] [W/O NULL] [ LOG ]
– 100,0 [C93085F1] [D469B2DA] CRC32
01 100,0 [944D8343] [C23E8C64]
02 100,0 [0499D14E] [1B0C9504]
03 100,0 [7E3DD74A] [EBC37802]
04 99,5 [44F5E73D] [7D3E2091]
05 99,6 [0649DD1B] [AE0AD418]
06 100,0 [85D9006F] [2048FFBA]
07 100,0 [9FC7D2F0] [ABF3DBD7]
08 100,0 [AB5306FA] [CC773EE3]
09 99,8 [10D047E0] [D8E0FF96]
10 99,7 [CC9887DC] [90324B90]
11 100,0 [EBF88A1B] [58B863DC]

Taylor Dayne - Soul Dancing (1993) {2014, Deluxe Edition}


All thanks go to Boris1

>>> My Blog <<<

DOWNLOAD: