Subcategories

Tchaikovsky, Liszt - First Piano Concertos - Alice Sara Ott (2010)

Posted By: Goodspeed
Tchaikovsky, Liszt - First Piano Concertos - Alice Sara Ott (2010)

Tchaikovsky, Liszt - First Piano Concertos - Alice Sara Ott (2010)
EAC+LOG+CUE | Flac (image) | Size: 214 MB | Artwork 56 MB @ 600dpi | TT: 54:47 | recovery: 5%
Genre: Classical | Int. Release: 17 Sep. 2010 | Catalog #: 0289 477 8779 2

As her first recording with orchestra amply attests, she's an independently minded musician with a great deal to say. Ott possesses a rare grasp of Liszt's rhetorical syntax, which imbues her interpretation with unusual eloquence and authority. The most fleeting and gossamer fioritura passagework is distinctly audible and invariably expressive. What the Ott/Hengelbrock collaboration offers in abundance is self-effacing musical intelligence coupled with boundless imagination, undergirded by all requisite technical resources for extraordinarily high-level, persuasive music-making. Very highly recommended.

Tchaikovsky, Liszt - First Piano Concertos - Alice Sara Ott (2010)


Track List:
Pyotr Ilyich Tchaikovsky (1840 - 1893)
Piano Concerto No. 1 in B-Flat Minor, Op. 23, TH. 55
1. 1. Allegro non troppo e molto maestoso - Allegro con spirito 20:58
2. 2. Andantino semplice - Prestissimo - Tempo I 7:00
3. 3. Allegro con fuoco 7:02
Franz Liszt (1811 - 1886)
Piano Concerto No.1 In E-Flat Major, S. 124
4. 1. Allegro maestoso 5:54
5. 2. Quasi adagio - Allegretto vivace - Allegro animato 9:31
6. 3. Allegro marziale animato - Presto 4:22

Tchaikovsky, Liszt - First Piano Concertos - Alice Sara Ott (2010)


Artists:
Piano: Alice Sara Ott
Orchestra: Münchner Philharmoniker
Conductor: Thomas Hengelbrock

Exact Audio Copy V1.0 beta 4 from 7. December 2014

EAC extraction logfile from 17. February 2018, 17:39

Alice Sara Ott, Münchener Philharmoniker - Thomas Hengelbrock / P.I.Tchaikowsky, F.Liszt - First Piano Concertos

Used drive : HL-DT-STDVDRAM GHA2N Adapter: 1 ID: 0

Read mode : Secure
Utilize accurate stream : Yes
Defeat audio cache : No
Make use of C2 pointers : No

Read offset correction : 667
Overread into Lead-In and Lead-Out : No
Fill up missing offset samples with silence : Yes
Delete leading and trailing silent blocks : No
Null samples used in CRC calculations : Yes
Used interface : Native Win32 interface for Win NT & 2000

Used output format : User Defined Encoder
Selected bitrate : 768 kBit/s
Quality : High
Add ID3 tag : No
Command line compressor : C:\Program Files (x86)\Exact Audio Copy\FLAC\FLAC.EXE
Additional command line options : -6 -V -T "ARTIST=%artist%" -T "TITLE=%title%" -T "ALBUM=%albumtitle%" -T "DATE=%year%" -T "TRACKNUMBER=%tracknr%" -T "GENRE=%genre%" -T "COMMENT=%comment%" -T "BAND=%albuminterpret%" -T "ALBUMARTIST=%albuminterpret%" -T "COMPOSER=%composer%" %haslyrics%–tag-from-file=LYRICS="%lyricsfile%"%haslyrics% -T "DISCNUMBER=%cdnumber%" -T "TOTALDISCS=%totalcds%" -T "TOTALTRACKS=%numtracks%" %hascover%–picture="%coverfile%"%hascover% %source% -o %dest%


TOC of the extracted CD

Track | Start | Length | Start sector | End sector
––––––––––––––––––––––––––––-
1 | 0:00.00 | 20:57.39 | 0 | 94313
2 | 20:57.39 | 7:00.13 | 94314 | 125826
3 | 27:57.52 | 7:09.54 | 125827 | 158055
4 | 35:07.31 | 5:53.57 | 158056 | 184587
5 | 41:01.13 | 9:30.48 | 184588 | 227385
6 | 50:31.61 | 4:22.33 | 227386 | 247068


Range status and errors

Selected range

Filename C:\EACrips\Alice Sara Ott, Münchener Philharmoniker - Thomas Hengelbrock - P.I.Tchaikowsky, F.Liszt - First Piano Concertos.wav

Peak level 100.0 %
Extraction speed 3.2 X
Range quality 100.0 %
Test CRC 350A5CDD
Copy CRC 350A5CDD
Copy OK

No errors occurred


AccurateRip summary

Track 1 accurately ripped (confidence 43) [6794A8FF] (AR v2)
Track 2 accurately ripped (confidence 45) [9163344F] (AR v2)
Track 3 accurately ripped (confidence 45) [1A90A461] (AR v2)
Track 4 accurately ripped (confidence 44) [EB72DA85] (AR v2)
Track 5 accurately ripped (confidence 44) [76E904F7] (AR v2)
Track 6 accurately ripped (confidence 44) [716F3AC9] (AR v2)

All tracks accurately ripped

End of status report

–– CUETools DB Plugin V2.1.4

[CTDB TOCID: 1DkSQ6nrei6eVEje4qlq_63XgNI-] found
Submit result: 1DkSQ6nrei6eVEje4qlq_63XgNI- has been confirmed
Track | CTDB Status
1 | (74/75) Accurately ripped
2 | (75/75) Accurately ripped
3 | (75/75) Accurately ripped
4 | (75/75) Accurately ripped
5 | (75/75) Accurately ripped
6 | (75/75) Accurately ripped


==== Log checksum 823FD2ACABEC8AC2CB707738CE00FD04EF48661537F5BAC45B0B549D9F3932A7 ====