Subcategories

Matthew Bourne, Brett Morris, The Sleeping Beauty Orchestra - Tchaikovsky: The Sleeping Beauty (2013) [Blu-Ray]

Posted By: Vilboa
Matthew Bourne, Brett Morris, The Sleeping Beauty Orchestra - Tchaikovsky: The Sleeping Beauty (2013) [Blu-Ray]

Matthew Bourne, Brett Morris, The Sleeping Beauty Orchestra - Tchaikovsky: The Sleeping Beauty (2013) [Blu-Ray]
BluRay | BDMV | MPEG-4 AVC Video / 39345 kbps / 1080i / 29,970 fps | 104 min | 44,7 Gb
Audio1: LPCM Audio / 2.0 / 24-bit | Audio2: DTS-HD MA / 5.1 / 48 kHz / 3933 kbps / 24-bit

BluRay-rip | AVC | MKV 1920x1080 / 9322 kbps / 29,97 fps | 104 min | 7,92 Gb
Audio: DTS / 6ch / 48.0 KHz / 24 bits
Classical | Label: Deutsche Grammophon

Matthew Bourne’s SLEEPING BEAUTY sees the choreographer return to the music of Tchaikovsky to complete the trio of the composer’s ballet masterworks that started in 1992 with Nutcracker! and, most famously, in 1995, with the international hit Swan Lake. Bourne takes this date as his starting point, setting the Christening of Aurora, the story’s heroine, in the year of the ballets first performance; the height of the Fin de siècle period when fairies, vampires and decadent opulence fed the gothic imagination. As Aurora grows into a young woman, we move forwards in time to the more rigid, uptight Edwardian era; a mythical golden age of long Summer afternoons, croquet on the lawn and new dance crazes. Years later, awakening from her century long slumber, Aurora finds herself in the modern day; a world more mysterious and wonderful than any Fairy story!
Quoted by The Spectator as ‘Tchaikovsky’s intoxicating music com[ing] magically to life through Bourne’s theatrical inventiveness and richly textured choreography’, Matthew Bourne’s interpretations have led to awards such as the Manchester Theatre Awards 2013 ‘Best Dance Production’ and nominations for the Olivier Awards ‘Outstanding Achievement in Dance 2013’ and the National Dance Awards ‘Outstanding Company 2013’. The product also includes bonus documentary: “Imagine – A Beauty is Born: Matthew Bourne’s Sleeping Beauty”.

Cast:
King Benedict - Edwin Ray
Queen Eleanor - Kerry Biggin
Princess Aurora - Hannah Vassallo
Leo - Dominic North
Count Lilac - Christopher Marney
Carabosse/Caradoc - Adam Maskell
Ardor - Mari Kamata
Hibernia - Katy Lowenhoff
Autumnus - Joe Walkling
Feral - Sophia Hurdley
Tantrum - Liam Mower
Lord Rupert - Daniel Collins
The Sleeping Beauty Orchestra
Conductor - Brett Morris
Directed and Choreographed by Matthew Bourne


Disc Title: SLEEPING BEAUTY
Disc Size: 48 072 526 719 bytes
Protection: AACS
BD-Java: No
Playlist: 00002.MPLS
Size: 37 656 711 168 bytes
Length: 1:44:44.645
Total Bitrate: 47,93 Mbps
Video: MPEG-4 AVC Video / 39345 kbps / 1080i / 29,970 fps / 16:9 / High Profile 4.1
Audio: Miscellaneous languages / LPCM Audio / 2.0 / 48 kHz / 2304 kbps / 24-bit
Audio: Miscellaneous languages / DTS-HD Master Audio / 5.1 / 48 kHz / 3933 kbps / 24-bit (DTS Core: 5.1 / 48 kHz / 1509 kbps / 24-bit)


General
Unique ID : 229228401829487654893943801306866121212 (0xAC73C8C91CFB2B0897CA75E635E1F9FC)
Complete name : C:\Sleeping_Beauty.mkv
Format : Matroska
Format version : Version 2
File size : 7.92 GiB
Duration : 1h 44mn
Overall bit rate : 10.8 Mbps
Movie name : Sleeping_Beauty
Encoded date : UTC 2018-04-28 08:16:20
Writing application : DVDFab 9.1.6.8
Writing library : libebml v0.7.8 + libmatroska v0.8.1

Video
ID : 1
Format : AVC
Format/Info : Advanced Video Codec
Format profile : High@L4.1
Format settings, CABAC : Yes
Format settings, ReFrames : 2 frames
Codec ID : V_MPEG4/ISO/AVC
Duration : 1h 44mn
Bit rate : 9 322 Kbps
Width : 1 920 pixels
Height : 1 080 pixels
Display aspect ratio : 16:9
Frame rate mode : Constant
Frame rate : 29.970 fps
Color space : YUV
Chroma subsampling : 4:2:0
Bit depth : 8 bits
Scan type : Progressive
Bits/(Pixel*Frame) : 0.150
Stream size : 6.66 GiB (84%)
Writing library : x264 core 142
Encoding settings : cabac=1 / ref=1 / deblock=1:-1:-1 / analyse=0x3:0 / me=hex / subme=5 / psy=0 / mixed_ref=0 / me_range=16 / chroma_me=1 / trellis=0 / 8x8dct=1 / cqm=0 / deadzone=21,11 / fast_pskip=1 / chroma_qp_offset=0 / threads=8 / lookahead_threads=2 / sliced_threads=0 / nr=0 / decimate=1 / interlaced=0 / bluray_compat=0 / constrained_intra=0 / bframes=2 / b_pyramid=0 / b_adapt=1 / b_bias=0 / direct=1 / weightb=1 / open_gop=0 / weightp=0 / keyint=24 / keyint_min=13 / scenecut=40 / intra_refresh=0 / rc=abr / mbtree=0 / bitrate=9322 / ratetol=1.0 / qcomp=0.60 / qpmin=0 / qpmax=69 / qpstep=4 / ip_ratio=1.40 / pb_ratio=1.30 / aq=1:1.00
Default : Yes
Forced : No
Color primaries : BT.709
Transfer characteristics : BT.709
Matrix coefficients : BT.709
Color range : Limited

Audio
ID : 2
Format : DTS
Format/Info : Digital Theater Systems
Mode : 16
Format settings, Endianness : Big
Codec ID : A_DTS
Duration : 1h 44mn
Bit rate mode : Constant
Bit rate : 1 509 Kbps
Channel(s) : 6 channels
Channel positions : Front: L C R, Side: L R, LFE
Sampling rate : 48.0 KHz
Bit depth : 24 bits
Compression mode : Lossy
Stream size : 1.10 GiB (14%)
Default : Yes
Forced : No

Menu
00:00:00.000 : en:Chapter 01
00:00:56.890 : en:Chapter 02
00:27:17.035 : en:Chapter 03
00:57:56.973 : en:Chapter 04
01:21:57.746 : en:Chapter 05
01:42:41.488 : en:Chapter 06

All screenshots taken from BDRip

Matthew Bourne, Brett Morris, The Sleeping Beauty Orchestra - Tchaikovsky: The Sleeping Beauty (2013) [Blu-Ray]