Subcategories

Alexander Tcherepnin - Piano Music (Robert Howat) (repost)

Posted By: tapaz9
Alexander Tcherepnin - Piano Music (Robert Howat) (repost)

Alexander Tcherepnin - Piano Music (Robert Howat) (repost)
Classical | EAC: FLAC+Cue+Log | 1 Cd, Covers | 182 Mb
Label: Orion - Date: 1989

Alexander Tcherepnin (1899 – 1977) was a Russian-born composer, pianist and conductor known for his cosmopolitan style that included influences from France and the Far East. His Father was the composer Nikolai Tcherepnin. Although Tcherepnin's style was Russian at heart, it lacked much of the Romantic melancholy and overt nationalism seen in other Russian-born composers. Instead, his earlier works are characterized by a French leanness and clarity and an emphasis on the clean articulation of form.
Requested by 13mh13

Tracks:

01. 10 Bagatelles, Op. 5 - No. 1. Allegro marciale [0:00:54.52]
02. No. 2. Con vivacita [0:01:39.73]
03. No. 3. Vivo [0:01:04.06]
04. No. 4. Lento con tristezza [0:02:01.15]
05. No. 5. Dolce [0:01:11.14]
06. No. 6. Allegro con spirito [0:00:53.02]
07. No. 7. Prestissimo [0:01:22.60]
08. No. 8. Allegro [0:01:07.21]
09. No. 9. Allegretto [0:00:52.11]
10. No. 10. Presto [0:01:07.28]
11. 12 Preludes, Op. 85 (excerpts) - No. 12. Lento [0:01:52.00]
12. No. 4. Allegro [0:01:06.09]
13. No. 8. Mesto [0:03:44.19]
14. No. 9. Allegro [0:01:15.38]
15. Expressions, Op. 81 - I. Entrance [0:00:56.59]
16. II. The Hour of Death [0:02:44.43]
17. III. Caprice [0:01:03.50]
18. IV. Silly Story of the White Oxen [0:00:53.72]
19. V. Fleeting Vision [0:00:56.14]
20. VI. At the Fair [0:01:17.13]
21. VII. Barcarolle [0:02:33.60]
22. VIII. Blind Man's Buff [0:00:48.50]
23. IX. At Dawn [0:02:12.30]
24. X. Exit [0:00:53.02]
25. Songs without Words, Op. 82 (excerpts) - No. 1. Elegy [0:02:37.56]
26. No. 4. The Juggler [0:01:17.31]
27. No. 5. Hymn to Our Lady [0:03:36.65]


Exact Audio Copy V1.0 beta 3 from 29. August 2011

EAC extraction logfile from 18. February 2013, 0:13

Alexander Tcherepnin / Piano Music (Robert Howat)

Used drive : TSSTcorpCDDVDW SH-S223C Adapter: 2 ID: 1

Read mode : Secure
Utilize accurate stream : Yes
Defeat audio cache : Yes
Make use of C2 pointers : No

Read offset correction : 697
Overread into Lead-In and Lead-Out : No
Fill up missing offset samples with silence : Yes
Delete leading and trailing silent blocks : No
Null samples used in CRC calculations : Yes
Used interface : Native Win32 interface for Win NT & 2000

Used output format : User Defined Encoder
Selected bitrate : 896 kBit/s
Quality : High
Add ID3 tag : No
Command line compressor : C:\Program Files (x86)\Exact Audio Copy\FLAC\FLAC.EXE
Additional command line options : -V -0 -T "COMMENT=Ripped by Tapaz9" -T "artist=%artist%" -T "title=%title%" -T "album=%albumtitle%" -T "date=%year%" -T "tracknumber=%tracknr%" -T "genre=%genre%" %source%


TOC of the extracted CD

Track | Start | Length | Start sector | End sector
––––––––––––––––––––––––––––-
1 | 0:00.00 | 0:54.52 | 0 | 4101
2 | 0:54.52 | 1:39.73 | 4102 | 11599
3 | 2:34.50 | 1:04.06 | 11600 | 16405
4 | 3:38.56 | 2:01.15 | 16406 | 25495
5 | 5:39.71 | 1:11.14 | 25496 | 30834
6 | 6:51.10 | 0:53.02 | 30835 | 34811
7 | 7:44.12 | 1:22.60 | 34812 | 41021
8 | 9:06.72 | 1:07.21 | 41022 | 46067
9 | 10:14.18 | 0:52.11 | 46068 | 49978
10 | 11:06.29 | 1:07.28 | 49979 | 55031
11 | 12:13.57 | 1:52.00 | 55032 | 63431
12 | 14:05.57 | 1:06.09 | 63432 | 68390
13 | 15:11.66 | 3:44.19 | 68391 | 85209
14 | 18:56.10 | 1:15.38 | 85210 | 90872
15 | 20:11.48 | 0:56.59 | 90873 | 95131
16 | 21:08.32 | 2:44.43 | 95132 | 107474
17 | 23:53.00 | 1:03.50 | 107475 | 112249
18 | 24:56.50 | 0:53.72 | 112250 | 116296
19 | 25:50.47 | 0:56.14 | 116297 | 120510
20 | 26:46.61 | 1:17.13 | 120511 | 126298
21 | 28:03.74 | 2:33.60 | 126299 | 137833
22 | 30:37.59 | 0:48.50 | 137834 | 141483
23 | 31:26.34 | 2:12.30 | 141484 | 151413
24 | 33:38.64 | 0:53.02 | 151414 | 155390
25 | 34:31.66 | 2:37.56 | 155391 | 167221
26 | 37:09.47 | 1:17.31 | 167222 | 173027
27 | 38:27.03 | 3:36.65 | 173028 | 189292


Range status and errors

Selected range

Filename F:\Musique\Tcherepnin, Alexander\Tcherepnin_PianoMusic\Alexander Tcherepnin - Piano Music (Robert Howat).wav

Peak level 100.0 %
Extraction speed 15.0 X
Range quality 100.0 %
Copy CRC 52C83F1F
Copy OK

No errors occurred

End of status report

==== Log checksum 05DA764E5D0B47ED46959CAEE6C5F6A25F9AC1C15DA379EE057A365E24C1E188 ====

No Mirrors and Torrent-uploads Please

See my classical digital download posts in the Vinyl & HR section or check out My Avax blog