Subcategories

Alexander Tcherepnin - Rhapsodie georgienne - Symphony No. 3 - Triple Concertino (repost)

Posted By: tapaz9
Alexander Tcherepnin - Rhapsodie georgienne - Symphony No. 3 - Triple Concertino (repost)

Alexander Tcherepnin - Rhapsodie georgienne - Symphony No. 3 - Triple Concertino (repost)
Classical | EAC: FLAC+Cue+Log | 1 Cd, Covers | 267 Mb
Label: Thorofon - Date: 1989

Alexander Tcherepnin (1899 – 1977) was a Russian-born composer, pianist and conductor known for his cosmopolitan style that included influences from France and the Far East. His Father was the composer Nikolai Tcherepnin. Although Tcherepnin's style was Russian at heart, it lacked much of the Romantic melancholy and overt nationalism seen in other Russian-born composers. Instead, his earlier works are characterized by a French leanness and clarity and an emphasis on the clean articulation of form.
Requested by 13mh13

Tracks:

01. Rhapsodie georgienne, Op. 25 - I. [0:05:43.56]
02. II. [0:10:24.00]
03. Triple Concertino, Op. 47 [0:16:36.34]
04. Symphony No. 3, Op. 83 - I. Lento [0:11:01.15]
05. II. Allegro pesante [0:02:48.08]
06. III. Adagio [0:06:30.07]
07. IV. Allegro [0:04:46.57]


Exact Audio Copy V1.0 beta 3 from 29. August 2011

EAC extraction logfile from 15. February 2013, 16:36

Alexander Tcherepnin / Rhapsodie georgienne - Symphony No. 3 - Triple Concertino (Gulke, Mund, Rajski)

Used drive : TSSTcorpCDDVDW SH-S223C Adapter: 2 ID: 1

Read mode : Secure
Utilize accurate stream : Yes
Defeat audio cache : Yes
Make use of C2 pointers : No

Read offset correction : 697
Overread into Lead-In and Lead-Out : No
Fill up missing offset samples with silence : Yes
Delete leading and trailing silent blocks : No
Null samples used in CRC calculations : Yes
Used interface : Native Win32 interface for Win NT & 2000

Used output format : User Defined Encoder
Selected bitrate : 896 kBit/s
Quality : High
Add ID3 tag : No
Command line compressor : C:\Program Files (x86)\Exact Audio Copy\FLAC\FLAC.EXE
Additional command line options : -V -0 -T "COMMENT=Ripped by Tapaz9" -T "artist=%artist%" -T "title=%title%" -T "album=%albumtitle%" -T "date=%year%" -T "tracknumber=%tracknr%" -T "genre=%genre%" %source%


TOC of the extracted CD

Track | Start | Length | Start sector | End sector
––––––––––––––––––––––––––––-
1 | 0:00.00 | 5:43.56 | 0 | 25780
2 | 5:43.56 | 10:24.00 | 25781 | 72580
3 | 16:07.56 | 16:36.34 | 72581 | 147314
4 | 32:44.15 | 11:01.15 | 147315 | 196904
5 | 43:45.30 | 2:48.08 | 196905 | 209512
6 | 46:33.38 | 6:30.07 | 209513 | 238769
7 | 53:03.45 | 4:46.57 | 238770 | 260276


Range status and errors

Selected range

Filename F:\Musique\Tcherepnin, Alexander\Tcherepnin_TripleConcertino\Alexander Tcherepnin - Rhapsodie georgienne - Symphony No. 3 - Triple Concertino).wav

Peak level 99.9 %
Extraction speed 14.7 X
Range quality 100.0 %
Copy CRC 6934FE12
Copy OK

No errors occurred

End of status report

==== Log checksum 4AE516F23BE71F168398CAF84674F777A6DD5A4F73B5E2BEFF33999EDBA8532A ====

No Mirrors and Torrent-uploads Please

See my classical digital download posts in the Vinyl & HR section or check out My Avax blog