Subcategories

Tedeschi Trucks Band - Signs (2019)

Posted By: popsakov
Tedeschi Trucks Band - Signs (2019)

Tedeschi Trucks Band - Signs (2019)
EAC Rip | FLAC (Tracks) + Cue + m3u8 + Log ~ 289 Mb | Full Scans ~ 225 Mb | RAR 5% Recovery
Blues Rock, Southern Rock, Roots Rock, Rhythm & Blues | Fantsy #FAN00406

Signs, the fourth studio album by the Tedeschi Trucks Band, poignantly addresses some of the major changes this 12-piece group has been through over the last couple of years. That said, it's hardly steeped in sadness, but acknowledges reckoning and acceptance while leaning on hope. In November 2016, longtime friend Leon Russell died. In January, Derek's uncle Butch Trucks committed suicide. In May, mentor Col. Bruce Hampton (to whom Signs is dedicated) suffered a fatal coronary on-stage during his 70th birthday celebration (which Trucks and Tedeschi witnessed). The same month, Gregg Allman died after a years-long battle with liver cancer. And in June, keyboardist Kofi Burbridge suffered a heart attack that required emergency surgery.

These events had an obvious impact on Signs, but it results in their most musically diverse offering yet. Sonically it remains in the band's trademark stew of blues, soul, rock, gospel, and improv, but also showcases a new songwriting sophistication and arranging skills. Co-produced by Trucks, Jim Scott, and Bobby Tis, these 11 tracks engage the full power of TTB beginning with the souled- out opener "Signs, High Times" that places all four singers (Tedeschi, Mike Mattison, Alecia Chakour, and Mark Rivers) alternating up front in a call to rise above the swamp of self-pity. Burbridge's Wurlitzer is distorted and funky, and the horns blare in support as frontline players trade lines across a deep groove. "I'm Gonna Be There" is a gospel tune wherein Tedeschi displays astonishing skill as a vocalist. The lyrics' affirmation in the face of darkness is offered with clean, resonant emotional power, underscored by the backing chorus and intertwining guitars from Trucks and guest Doyle Bramhall II, as well as a string quartet sumptuously arranged by Burbridge. "Walk Through This Life" – co-written with bassist Tim Lefebvre (who has amicably left the group) and Warren Haynes, who joins the backing chorus – is a soaring soul anthem with popping horns and wah-wah guitars that Tedeschi refuses to surrender to, no matter the toll loss extracts. "Still Your Mind" references the need for close community in the midst of life's challenges. Its music careens between garagey rock, loopy R&B, and nearly Baroque psychedelia. (Trucks' guitar break is absolutely unhinged.) "Shame" reveals the band's musical growth and steely grit simultaneously. While Tedeschi digs into her lyric with the commitment of Mavis Staples, tempos shift, horns fold in drama, and Trucks' guitars underscore the lyrics' emotional storm. "They Don't Shine" is an uptempo rave that walks a driving line between Creedence Clearwater Revival and Ike and Tina Turner with Tedeschi wrangling her Stratocaster in the lead guitar chair. "The Ending" is a wrenching Americana elegy for Hampton. Penned by the bandleaders with Oliver Wood, it's about the man, his absence, and the wisdom and magic he imparted during his lifetime. It creates an unexpected yet fitting conclusion to Signs, a recording that will surprise and delight TTB fans as their most adventurous to date.

~ Thom Jurek, All Music

***************

Tedeschi Trucks Band - Signs (2019)

Track List:

01. Signs High Times (Kofi Burbridge / Derek Trucks / Susan Tedeschi) [03:52]
02. I’m Gonna Be There (Doyle Bramhall II / Derek Trucks / Susan Tedeschi / Anthony Cole) [05:49]
03. When Will I Begin (Susan Tedeschi) [04:18]
04. Walks Through This Life (Warren Haynes / Tim Lefebvre / Susan Tedeschi / Derek Trucks) [04:46]
05. Strengthen What Remains (Mike Mattison) [02:37]
06. Still Your Mind (Derek Trucks / Kofi Burbridge) [04:58]
07. Hard Case (Mike Mattison / Derek Trucks / Susan Tedeschi) [03:23]
08. Shame (Derek Trucks / Susan Tedeschi / Mike Mattison / Tim Lefebvre) [04:55]
09. All the World (Doyle Bramhall II / Derek Trucks / Susan Tedeschi) [03:21]
10. They Don’t Shine (Mike Mattison / Kristina Train) [03:33]
11. The Ending (Oliver Wood / Derek Trucks / Susan Tedeschi) [05:02]

Personnel:
Susan Tedeschi - vocals, guitars
Derek Trucks - guitars
Kofi Burbridge - keyboards, flute
Tim Lefebvre - bass
J.J. Johnson - drums
Tyler Greenwell - drums
Mike Mattison - vocals
Mark Rivers - vocals
Alecia Chakour - vocals
Kebby Williams - saxophone
Ephraim Owens - trumpet
Elizabeth Lea - trombone

Guest Musicians:
Marc Quiñones - congas, percussion (1, 2, 8)
Jonathan Kuo - violin (2, 3, 5, 9)
Gabriela Peña-Kim - violin (2, 3, 5, 9)
Jorge Peña - viola (2, 3, 5, 9)
Alexei Romanenko - cello (2, 3, 5, 9)
Warren Haynes - vocals (4
Doyle Bramhall II - additional guitar, vocals (2), acoustic guitar (5)
Produced by Derek Trucks, Jim Scott, and Bobby Tis.

Exact Audio Copy V1.3 from 2. September 2016

EAC extraction logfile from 15. February 2019, 21:18

Tedeschi Trucks Band / Signs

Used drive : ASUS BW-12D1S-U Adapter: 1 ID: 1

Read mode : Secure
Utilize accurate stream : Yes
Defeat audio cache : Yes
Make use of C2 pointers : No

Read offset correction : 667
Overread into Lead-In and Lead-Out : No
Fill up missing offset samples with silence : Yes
Delete leading and trailing silent blocks : No
Null samples used in CRC calculations : Yes
Used interface : Native Win32 interface for Win NT & 2000
Gap handling : Appended to previous track

Used output format : User Defined Encoder
Selected bitrate : 1024 kBit/s
Quality : High
Add ID3 tag : No
Command line compressor : C:\Program Files (x86)\Exact Audio Copy\FLAC\FLAC.EXE
Additional command line options : -V -8 -T "Genre=%genre%" -T "Artist=%artist%" -T "Title=%title%" -T "Album=%albumtitle%" -T "Date=%year%" -T "Tracknumber=%tracknr%" -T "Comment=%comment%" %source%


TOC of the extracted CD

Track | Start | Length | Start sector | End sector
––––––––––––––––––––––––––––-
1 | 0:00.00 | 3:51.66 | 0 | 17390
2 | 3:51.66 | 5:48.48 | 17391 | 43538
3 | 9:40.39 | 4:17.68 | 43539 | 62881
4 | 13:58.32 | 4:46.32 | 62882 | 84363
5 | 18:44.64 | 2:36.44 | 84364 | 96107
6 | 21:21.33 | 4:57.54 | 96108 | 118436
7 | 26:19.12 | 3:22.62 | 118437 | 133648
8 | 29:41.74 | 4:55.12 | 133649 | 155785
9 | 34:37.11 | 3:21.16 | 155786 | 170876
10 | 37:58.27 | 3:33.07 | 170877 | 186858
11 | 41:31.34 | 5:02.19 | 186859 | 209527


Track 1

Filename E:\Torrents of Autumn\Tedeschi Trucks Band [2019] Signs\01. Signs High Times.wav

Pre-gap length 0:00:02.00

Peak level 98.8 %
Extraction speed 4.4 X
Track quality 100.0 %
Test CRC 982FB1D6
Copy CRC 982FB1D6
Track not present in AccurateRip database
Copy OK

Track 2

Filename E:\Torrents of Autumn\Tedeschi Trucks Band [2019] Signs\02. I'm Gonna Be There.wav

Peak level 99.1 %
Extraction speed 5.1 X
Track quality 100.0 %
Test CRC 2825F068
Copy CRC 2825F068
Track not present in AccurateRip database
Copy OK

Track 3

Filename E:\Torrents of Autumn\Tedeschi Trucks Band [2019] Signs\03. When Will I Begin.wav

Peak level 100.0 %
Extraction speed 5.5 X
Track quality 100.0 %
Test CRC 9B6A2100
Copy CRC 9B6A2100
Track not present in AccurateRip database
Copy OK

Track 4

Filename E:\Torrents of Autumn\Tedeschi Trucks Band [2019] Signs\04. Walks Through This Life.wav

Peak level 99.0 %
Extraction speed 5.9 X
Track quality 100.0 %
Test CRC AC2BAD4E
Copy CRC AC2BAD4E
Track not present in AccurateRip database
Copy OK

Track 5

Filename E:\Torrents of Autumn\Tedeschi Trucks Band [2019] Signs\05. Strengthen What Remains.wav

Peak level 90.7 %
Extraction speed 5.4 X
Track quality 100.0 %
Test CRC DE7AE58D
Copy CRC DE7AE58D
Track not present in AccurateRip database
Copy OK

Track 6

Filename E:\Torrents of Autumn\Tedeschi Trucks Band [2019] Signs\06. Still Your Mind.wav

Peak level 98.7 %
Extraction speed 6.5 X
Track quality 100.0 %
Test CRC 699794A3
Copy CRC 699794A3
Track not present in AccurateRip database
Copy OK

Track 7

Filename E:\Torrents of Autumn\Tedeschi Trucks Band [2019] Signs\07. Hard Case.wav

Peak level 99.2 %
Extraction speed 5.7 X
Track quality 99.9 %
Test CRC B624F16E
Copy CRC B624F16E
Track not present in AccurateRip database
Copy OK

Track 8

Filename E:\Torrents of Autumn\Tedeschi Trucks Band [2019] Signs\08. Shame.wav

Peak level 99.4 %
Extraction speed 6.5 X
Track quality 99.9 %
Test CRC 77158C13
Copy CRC 77158C13
Track not present in AccurateRip database
Copy OK

Track 9

Filename E:\Torrents of Autumn\Tedeschi Trucks Band [2019] Signs\09. All the World.wav

Peak level 98.8 %
Extraction speed 7.0 X
Track quality 100.0 %
Test CRC 1519A9BB
Copy CRC 1519A9BB
Track not present in AccurateRip database
Copy OK

Track 10

Filename E:\Torrents of Autumn\Tedeschi Trucks Band [2019] Signs\10. They Don't Shine.wav

Peak level 98.9 %
Extraction speed 6.3 X
Track quality 99.9 %
Test CRC D12C7ECF
Copy CRC D12C7ECF
Track not present in AccurateRip database
Copy OK

Track 11

Filename E:\Torrents of Autumn\Tedeschi Trucks Band [2019] Signs\11. The Ending.wav

Pre-gap length 0:00:05.53

Peak level 81.6 %
Extraction speed 6.1 X
Track quality 100.0 %
Test CRC 830E1579
Copy CRC 830E1579
Track not present in AccurateRip database
Copy OK


None of the tracks are present in the AccurateRip database

No errors occurred

End of status report

–– CUETools DB Plugin V2.1.6

[CTDB TOCID: lLBwBLnk1z3UwvLtdH78ovQp8wc-] found
Submit result: lLBwBLnk1z3UwvLtdH78ovQp8wc- has been confirmed
Track | CTDB Status
1 | (10/10) Accurately ripped
2 | (10/10) Accurately ripped
3 | (10/10) Accurately ripped
4 | (10/10) Accurately ripped
5 | (10/10) Accurately ripped
6 | (10/10) Accurately ripped
7 | (10/10) Accurately ripped
8 | (10/10) Accurately ripped
9 | (10/10) Accurately ripped
10 | (10/10) Accurately ripped
11 | (10/10) Accurately ripped


==== Log checksum 6B86BE8C957C6E93764306F6AF5390718C3EE6BE2366CF9DF14CA46812BA8751 ====

Tedeschi Trucks Band - Signs (2019)

All thanks go to DoobieBro

>>> Tedeschi Trucks Band in my Blog <<<

Download from icerbox.com: