Subcategories

Telemann: Opera Arias - Nuria Rial, Kammerorchester Basel (2012)

Posted By: peotuvave
Telemann: Opera Arias - Nuria Rial, Kammerorchester Basel (2012)

Telemann: Opera Arias - Nuria Rial, Kammerorchester Basel (2012)
EAC Rip | Flac (Image + cue + log) | 1 CD | Full Scans | 275 MB
Genre: Classical | Label: Harmonia Mundi | Catalog Number: 7922562

Nuria Rial is one of the leading baroque soloists and is famous for her shining, crystal clear and beautiful voice. In this album she sings, with the world famous Kammerorchester Basel, nine rarely recorded German arias by Georg Philip Telemann. They are taken from rarely performed operas by this underestimated baroque composer: "Emma and Eginhard", "Der geduldige Socrates" and "Germanicus". The aria "Komm, oh Schlaf" from the opera "Germanicus" is a world premier recording, the scores only being found a couple of years ago in Frankfurt. The disc also includes two violin concertos from which the Overtures to “Emma und Eginhard” and “Der geduldige Socrates” are taken.

Composer: Georg Philipp Telemann
Performer: Nuria Rial
Orchestra/Ensemble: Basel Chamber Orchestra

Reviews: “[In 'Come, o sleep, and let my cares'] the gentle, courtly tone so effortlessly sustained by Rial is elevated by the use of two flutes amid a glowing orchestral arrangement. The delightful feathery fluting of concertante recorder likewise helps animate the emotional quandary of "Hope gives me comfort"”

“Rial's enchanting recital with the Basel Chamber Orchestra comprises high-quality arias…the orchestral performance is beautifully poised to support Rial's serene soprano”

“The diverse programme is selected shrewdly. 'Komm o Schlaf' (Germanicus), with plucked basso continuo, is a beguiling sleep aria ideal for Rial's intimate soft singing…Rial impresses in impassioned outbursts…and virtuoso recorder solos make a dazzling impact”

Tracklisting:

1. Aria(s) by Georg Philipp Telemann
Performer: Nuria Rial (Soprano)
Orchestra/Ensemble: Basel Chamber Orchestra
Period: Baroque
Written: Germany

2. Germanicus: Komm, oh Schlaf by Georg Philipp Telemann
Performer: Nuria Rial (Soprano)
Orchestra/Ensemble: Basel Chamber Orchestra
Period: Baroque

Exact Audio Copy V0.99 prebeta 5 from 4. May 2009

EAC extraction logfile from 24. February 2012, 19:12

Nuria Rial / Telemann - Opera Arien

Used drive : Optiarc DVD RW AD-7203S Adapter: 1 ID: 0

Read mode : Secure
Utilize accurate stream : Yes
Defeat audio cache : Yes
Make use of C2 pointers : No

Read offset correction : 48
Overread into Lead-In and Lead-Out : No
Fill up missing offset samples with silence : Yes
Delete leading and trailing silent blocks : No
Null samples used in CRC calculations : Yes
Used interface : Installed external ASPI interface

Used output format : User Defined Encoder
Selected bitrate : 768 kBit/s
Quality : High
Add ID3 tag : No
Command line compressor : M:\prog\Exact Audio Copy\FLAC\FLAC.EXE
Additional command line options : -8 -V %s


TOC of the extracted CD

Track | Start | Length | Start sector | End sector
––––––––––––––––––––––––––––-
1 | 0:00.00 | 4:08.41 | 0 | 18640
2 | 4:08.41 | 1:32.63 | 18641 | 25603
3 | 5:41.29 | 6:07.56 | 25604 | 53184
4 | 11:49.10 | 3:59.05 | 53185 | 71114
5 | 15:48.15 | 3:05.07 | 71115 | 84996
6 | 18:53.22 | 2:12.26 | 84997 | 94922
7 | 21:05.48 | 3:56.39 | 94923 | 112661
8 | 25:02.12 | 5:17.66 | 112662 | 136502
9 | 30:20.03 | 2:51.24 | 136503 | 149351
10 | 33:11.27 | 0:43.03 | 149352 | 152579
11 | 33:54.30 | 3:11.33 | 152580 | 166937
12 | 37:05.63 | 5:40.06 | 166938 | 192443
13 | 42:45.69 | 5:54.12 | 192444 | 219005
14 | 48:40.06 | 5:01.21 | 219006 | 241601
15 | 53:41.27 | 6:10.72 | 241602 | 269423


Range status and errors

Selected range

Filename N:\@Results\Telemann - Opera Arien - Nuria Rial.wav

Peak level 88.7 %
Range quality 100.0 %
Test CRC 5E887620
Copy CRC 5E887620
Copy OK

No errors occurred

End of status report


Thanks to the original releaser

Download:

Filepost

Part 1 | Part 2

Uploaded

Part 1 | Part 2

Deposit

Part 1 | Part 2