Subcategories
Tags
Language
Tags

Telex - This Is Telex (2021)

Posted By: popsakov
Telex - This Is Telex (2021)

Telex - This Is Telex (2021)
EAC Rip | WavPack (Img) + Cue + Log ~ 352 Mb | MP3 CBR320 ~ 131 Mb
Covers Included | 00:53:46 | RAR 5% Recovery
Electronic, Synth-Pop | Mute Records #CDMUTEL30

This Is Telex is a brand new compilation collecting 14 tracks from the innovative Belgium trio, covering their career from formation in 1978 up to the final album in 2006. This compilation includes the hit single Moskow Disko as well as their Eurovision Song Contest entry, aptly called Euro-vision. There are also 2 wonderful and previously unreleased tracks unearthed from the Telex archive, a cover of The Beatles' Dear Prudence and a reinterpretation of a Sonny & Cher track called The Beat Goes On/Off. All the tracks were newly mixed and remastered from the original tapes by band members Dan Lacksman and Michel Moers, keeping all the tracks in the spirit of the originals but adding a freshness to them. This compilation sets the way for a comprehensive reissue campaign of the entire Telex catalogue.

***************

Track List:

01. The Beat Goes On/Off (Unreleased) [3:37]
02. Moskow Diskow (New mix) [3:19]
03. Twist a` Saint-Tropez (New mix) [3:27]
04. Euro-vision (New mix) [2:44]
05. Dance To The Music (New mix) [3:35]
06. Drama Drama (New mix) [4:00]
07. Exercise Is Good For You (New mix) [3:56]
08. L’amour toujours (New mix) [3:32]
09. Radio-Radio (New mix) [4:05]
10. Rendez-vous dans l’espace (New mix) [4:17]
11. Beautiful Li(f)e (New mix) [3:25]
12. The Number One Song In Heaven (New mix) [6:28]
13. La Bamba (New mix) [3:23]
14. Dear Prudence (Unreleased) [4:02]

Exact Audio Copy V1.6 from 23. October 2020

EAC extraction logfile from 5. May 2021, 11:10

Telex / This Is Telex

Used drive : SlimtypeeBAU108 6 L Adapter: 0 ID: 0

Read mode : Secure
Utilize accurate stream : Yes
Defeat audio cache : Yes
Make use of C2 pointers : No

Read offset correction : 6
Overread into Lead-In and Lead-Out : No
Fill up missing offset samples with silence : Yes
Delete leading and trailing silent blocks : No
Null samples used in CRC calculations : Yes
Used interface : Installed external ASPI interface

Used output format : User Defined Encoder
Selected bitrate : 1024 kBit/s
Quality : High
Add ID3 tag : No
Command line compressor : C:\Program Files\Wavpack\wavpack.exe
Additional command line options : -hm -w "Year=%year%" -w "Genre=%genre%" %source% %dest%


TOC of the extracted CD

Track | Start | Length | Start sector | End sector
––––––––––––––––––––––––––––-
1 | 0:00.00 | 3:37.00 | 0 | 16274
2 | 3:37.00 | 3:18.56 | 16275 | 31180
3 | 6:55.56 | 3:26.50 | 31181 | 46680
4 | 10:22.31 | 2:43.71 | 46681 | 58976
5 | 13:06.27 | 3:34.62 | 58977 | 75088
6 | 16:41.14 | 4:00.00 | 75089 | 93088
7 | 20:41.14 | 3:55.43 | 93089 | 110756
8 | 24:36.57 | 3:31.53 | 110757 | 126634
9 | 28:08.35 | 4:04.62 | 126635 | 144996
10 | 32:13.22 | 4:16.21 | 144997 | 164217
11 | 36:29.43 | 3:24.21 | 164218 | 179538
12 | 39:53.64 | 6:27.71 | 179539 | 208634
13 | 46:21.60 | 3:22.15 | 208635 | 223799
14 | 49:44.00 | 4:02.00 | 223800 | 241949


Range status and errors

Selected range

Filename E:\Atsisiųsti failai\Telex - This Is Telex ( 2021-WV )\Telex - This Is Telex.wav

Peak level 100.0 %
Extraction speed 3.2 X
Range quality 100.0 %
Test CRC CE9F6D99
Copy CRC CE9F6D99
Copy OK

No errors occurred

End of status report

==== Log checksum 77A7769F542DD502D1FF2B3BD6B9074604A077CECE7176BC0F296D4E31596105 ====

All thanks go to audelas

>>> My Blog <<<

DOWNLOAD: