Tags
Language
Tags

Ten Years After Discography (1967-2008) [Studio Albums]

Posted By: v3122
Ten Years After Discography (1967-2008) [Studio Albums]

Ten Years After Discography (1967-2008)
EAC | Flac(Image) + Cue + Log & MP3 CBR 320Kbps
11CD | ~ 3997 or 1568 Mb | Scans (png, 300dpi)
Blues Rock / British Blues / Rock & Roll / Jazz Rock

Ten Years After was a British blues-rock quartet consisting of Alvin Lee (born December 19, 1944, died March 6, 2013), guitar and vocals; Chick Churchill (born January 2, 1949), keyboards; Leo Lyons (born November 30, 1944) bass; and Ric Lee (born October 20, 1945), drums. The group was formed in 1967 and signed to Decca in England. Their first album was not a success, but their second, the live Undead (1968) containing "I'm Going Home," a six-minute blues workout by the fleet-fingered Alvin, hit the charts on both sides of the Atlantic. Stonedhenge (1969) hit the U.K. Top Ten in early 1969. Ten Years After's U.S. breakthrough came as a result of their appearance at Woodstock, at which they played a nine-minute version of "I'm Going Home." Their next album, Ssssh, reached the U.S. Top 20, and Cricklewood Green, containing the hit single "Love Like a Man," reached number four. Watt completed the group's Decca contract, after which they signed with Columbia and moved in a more mainstream pop direction, typified by the gold-selling 1971 album A Space in Time and its Top 40 single "I'd Love to Change the World." Subsequent efforts in that direction were less successful, however, and Ten Years After split up after the release of Positive Vibrations in 1974. They reunited in 1988 for concerts in Europe and recorded their first new album in 15 years, About Time, in 1989 before disbanding once again. In 2001, Ric Lee was preparing the back catalog for re-release when he discovered the Live at the Fillmore East 1970 tapes. He approached Alvin about getting back together to promote the lost album, but Alvin Lee declined. The rest of the band was up for it, though, and together with guitarist Joe Gooch, Ten Years After started touring again. In addition to touring the world, this new incarnation recorded its first new material in about a decade and a half and released Now in 2004 and added the live double CD set Roadworks in 2005. Alvin Lee died on March 6, 2013 at the age of 68 due to complications from a routine surgery.

by William Ruhlmann
Ten Years After Discography (1967-2008) [Studio Albums]

Ten Years After Discography (1967-2008):

Ten Years After Discography (1967-2008) [Studio Albums]

CD1: Ten Years After - Ten Years After (1967)
EAC | Flac(Image) + Cue + Log & MP3 CBR 320Kbps
2002 | Remastered | Deram, 8828972 | ~ 386 or 162 Mb | Scans(png, 300dpi)
Blues Rock / British Blues / Rock & Roll / Jazz Rock

Ten years after is one of the most underated bands around. Mostly known for there performance at woodstock or there FM hit "i'd like to change the world". This there first album is pure blues and jazz unlike there later rock and psychedelia. I've played this cd at work and around family and friends and everyone likes it. They're like who are these guys? Great cd from a great band.

By bigchet, amazon
Tracklist:

01. I Want To Know - 2:12
02. I Can't Keep From Crying, Sometimes - 5:24
03. Adventures of A Young Organ - 2:35
04. Spoonful - 6:05
05. Losing The Dogs - 3:04
06. Feel It For Me - 2:41
07. Love Until I Die - 2:07
08. Don't Want You Woman - 2:37
09. Help Me - 9:51
Bonus Tracks:
10. Portable People - 2:17
11. The Sounds - 4:29
12. Rock Your Mama - 3:01
13. Spider In My Web - 7:14
14. Hold Me Tight - 2:19
15. Woodchoppers Ball - 7:45

Exact Audio Copy V1.0 beta 3 from 29. August 2011

EAC extraction logfile from 2. October 2012, 9:57

Ten Years After / Ten Years After (2002, Remastered)

Used drive : Optiarc DVD RW AD-5200S Adapter: 2 ID: 0

Read mode : Secure
Utilize accurate stream : Yes
Defeat audio cache : Yes
Make use of C2 pointers : No

Read offset correction : 48
Overread into Lead-In and Lead-Out : No
Fill up missing offset samples with silence : Yes
Delete leading and trailing silent blocks : No
Null samples used in CRC calculations : Yes
Used interface : Native Win32 interface for Win NT & 2000

Used output format : User Defined Encoder
Selected bitrate : 1024 kBit/s
Quality : High
Add ID3 tag : No
Command line compressor : C:\Program Files (x86)\Exact Audio Copy\FLAC\FLAC.EXE
Additional command line options : -8 -V -T "ARTIST=%artist%" -T "TITLE=%title%" -T "ALBUM=%albumtitle%" -T "DATE=%year%" -T "TRACKNUMBER=%tracknr%" -T "GENRE=%genre%" -T "PERFORMER=%albuminterpret%" -T "COMPOSER=%composer%" %haslyrics%–tag-from-file=LYRICS="%lyricsfile%"%haslyrics% -T "ALBUMARTIST=%albumartist%" -T "DISCNUMBER=%cdnumber%" -T "TOTALDISCS=%totalcds%" -T "TOTALTRACKS=%numtracks%" -T "COMMENT=%comment%" %source% -o %dest%


TOC of the extracted CD

Track | Start | Length | Start sector | End sector
––––––––––––––––––––––––––––-
1 | 0:00.00 | 2:11.65 | 0 | 9889
2 | 2:11.65 | 5:24.30 | 9890 | 34219
3 | 7:36.20 | 2:34.67 | 34220 | 45836
4 | 10:11.12 | 6:05.28 | 45837 | 73239
5 | 16:16.40 | 3:03.62 | 73240 | 87026
6 | 19:20.27 | 2:40.73 | 87027 | 99099
7 | 22:01.25 | 2:06.47 | 99100 | 108596
8 | 24:07.72 | 2:37.15 | 108597 | 120386
9 | 26:45.12 | 9:51.18 | 120387 | 164729
10 | 36:36.30 | 2:17.10 | 164730 | 175014
11 | 38:53.40 | 4:29.20 | 175015 | 195209
12 | 43:22.60 | 3:00.52 | 195210 | 208761
13 | 46:23.37 | 7:13.60 | 208762 | 241296
14 | 53:37.22 | 2:18.48 | 241297 | 251694
15 | 55:55.70 | 7:44.50 | 251695 | 286544


Range status and errors

Selected range

Filename G:\Download\Музыка LossLess\Ten Years After\2002 - Ten Years After -Ten Years After (2002, Remastered, 8828972)\Ten Years After - Ten Years After (2002, Remastered).wav

Peak level 98.8 %
Extraction speed 3.9 X
Range quality 99.9 %
Test CRC 7208ADCF
Copy CRC 7208ADCF
Copy OK

No errors occurred


AccurateRip summary

Track 1 accurately ripped (confidence 2) [45BF469C] (AR v2)
Track 2 accurately ripped (confidence 3) [7A6FB2B6] (AR v2)
Track 3 accurately ripped (confidence 3) [8F3BE1C6] (AR v2)
Track 4 accurately ripped (confidence 3) [D913ED2E] (AR v2)
Track 5 accurately ripped (confidence 3) [8BF9ABAF] (AR v2)
Track 6 accurately ripped (confidence 3) [1EF3666C] (AR v2)
Track 7 accurately ripped (confidence 3) [DE1B5505] (AR v2)
Track 8 accurately ripped (confidence 3) [C266F1F0] (AR v2)
Track 9 accurately ripped (confidence 3) [CAC930E5] (AR v2)
Track 10 accurately ripped (confidence 3) [EFB363E1] (AR v2)
Track 11 accurately ripped (confidence 3) [DECDBF76] (AR v2)
Track 12 accurately ripped (confidence 3) [C09A5D06] (AR v2)
Track 13 accurately ripped (confidence 3) [AC5BDEE9] (AR v2)
Track 14 accurately ripped (confidence 3) [50EECDEE] (AR v2)
Track 15 accurately ripped (confidence 3) [C0D77CC4] (AR v2)

All tracks accurately ripped

End of status report

foobar2000 1.1.18 / Dynamic Range Meter 1.1.1
log date: 2013-03-11 13:56:13

––––––––––––––––––––––––––––––––––––––––
Analyzed: Ten Years After / Ten Years After (2002, Remastered, 8828972)
––––––––––––––––––––––––––––––––––––––––

DR Peak RMS Duration Track
––––––––––––––––––––––––––––––––––––––––
DR9 -0.42 dB -12.85 dB 2:12 01-I Want To Know
DR10 -0.10 dB -14.93 dB 5:24 02-I Can't Keep From Crying, Sometimes
DR8 -0.10 dB -12.16 dB 2:35 03-Adventures of A Young Organ
DR10 -0.10 dB -12.15 dB 6:05 04-Spoonful
DR10 -0.10 dB -12.21 dB 3:04 05-Losing The Dogs
DR10 -0.10 dB -12.17 dB 2:41 06-Feel It For Me
DR11 -0.10 dB -13.30 dB 2:07 07-Love Until I Die
DR12 -3.12 dB -18.37 dB 2:37 08-Don't Want You Woman
DR8 -0.10 dB -10.53 dB 9:51 09-Help Me
DR11 -2.40 dB -15.81 dB 2:17 10-Portable People
DR9 -0.10 dB -10.85 dB 4:29 11-The Sounds
DR9 -0.10 dB -12.78 dB 3:01 12-Rock Your Mama
DR11 -0.10 dB -12.91 dB 7:14 13-Spider In My Web
DR9 -0.43 dB -12.27 dB 2:19 14-Hold Me Tight
DR10 -0.10 dB -11.05 dB 7:45 15-Woodchoppers Ball
––––––––––––––––––––––––––––––––––––––––

Number of tracks: 15
Official DR value: DR10

Samplerate: 44100 Hz
Channels: 2
Bits per sample: 16
Bitrate: 781 kbps
Codec: FLAC

===========================

Ten Years After Discography (1967-2008) [Studio Albums]

CD2: Ten Years After - Stonedhenge (1969)
EAC | Flac(Image) + Cue + Log & MP3 CBR 320Kbps
2002 | Remastered | Deram, 8828982 | ~ 332 or 147 Mb | Scans(png, 300dpi)
Blues Rock / British Blues / Rock & Roll / Jazz Rock

"I'm Going Home" from Ten Years After's previous release put them on the charts, at least in the U.K. (the band's U.S. breakthrough was at Woodstock a year after its release), but the four-piece was already experimenting with ways to expand their basic boogie rock template. Stonedhenge was the result, as producer Mike Vernon helped steer the band into a more jazz- and blues-oriented direction. That's especially evident in the swinging "Woman Trouble," but this set is generally more prone to broadening the sound without losing TYA's basic concept. It doesn't always gel – the four short pieces that feature each musician alone on their instrument is an interesting idea that ends up as a distraction – yet the album boasts some terrific performances by a group that was hitting its peak. Canned Heat, who TYA supported in America and who were also trying to push their own boogie envelope, were a big influence, born out by the very Heat-sounding "Hear Me Calling." Alvin Lee keeps his fleet fingers in check, preferring to work his style into a more organic fusion. Tracks such as the creeping "A Sad Song" successfully build tension without the need for speedy guitar solos. The eight-minute "No Title" takes the basic TYA blueprint but slowly creates a moody atmosphere for three minutes until Lee cranks out a terse, loud extension on its main riff that sets the stage for Chick Churchill's eerie organ solo. The quartet and their producer also experimented with primitive panning and tape manipulation to impressive results. The closing "Speed Kills" returns TYA to its basics, perhaps as a way to let its existing fans know they can still churn out the rocking when needed. The album was remastered and expanded in 2002 by adding informative liner notes from drummer Ric Lee, four extra tracks including the tiresome, 15-minute "Boogie On," and an edited single version of "I'm Going Home," U,K, artwork (the initial U.S. edition was an embarrassing botch job) and pristine sound from the original tapes.

by Hal Horowitz
Tracklist:

01. Going To Try - 4:52
02. I Can't Live Without Lydia - 1:24
03. Woman Trouble - 4:37
04. Skoobly-Oobly-Doobob - 1:42
05. Hear Me Calling - 5:44
06. A Sad Song - 3:23
07. Three Blind Mice - 0:59
08. No Title - 8:13
09. Faro - 1:11
10. Speed Kills - 3:41
Bonus Tracks:
11. Hear Me Calling (Single Version) (Bonus) - 3:46
12. Women Trouble (US Version) (Bonus) - 4:51
13. I'm Going Home (Single Version) (Bonus) - 3:39
14. Boogie On (Bonus) - 14:26

Exact Audio Copy V1.0 beta 3 from 29. August 2011

EAC extraction logfile from 12. October 2012, 22:30

Ten Years After / Stonedhenge (2002, Remastered, 8828982)

Used drive : Optiarc DVD RW AD-5200S Adapter: 2 ID: 0

Read mode : Secure
Utilize accurate stream : Yes
Defeat audio cache : Yes
Make use of C2 pointers : No

Read offset correction : 48
Overread into Lead-In and Lead-Out : No
Fill up missing offset samples with silence : Yes
Delete leading and trailing silent blocks : No
Null samples used in CRC calculations : Yes
Used interface : Native Win32 interface for Win NT & 2000

Used output format : User Defined Encoder
Selected bitrate : 1024 kBit/s
Quality : High
Add ID3 tag : No
Command line compressor : C:\Program Files (x86)\Exact Audio Copy\FLAC\FLAC.EXE
Additional command line options : -8 -V -T "ARTIST=%artist%" -T "TITLE=%title%" -T "ALBUM=%albumtitle%" -T "DATE=%year%" -T "TRACKNUMBER=%tracknr%" -T "GENRE=%genre%" -T "PERFORMER=%albuminterpret%" -T "COMPOSER=%composer%" %haslyrics%–tag-from-file=LYRICS="%lyricsfile%"%haslyrics% -T "ALBUMARTIST=%albumartist%" -T "DISCNUMBER=%cdnumber%" -T "TOTALDISCS=%totalcds%" -T "TOTALTRACKS=%numtracks%" -T "COMMENT=%comment%" %source% -o %dest%


TOC of the extracted CD

Track | Start | Length | Start sector | End sector
––––––––––––––––––––––––––––-
1 | 0:00.00 | 4:51.70 | 0 | 21894
2 | 4:51.70 | 1:23.67 | 21895 | 28186
3 | 6:15.62 | 4:37.16 | 28187 | 48977
4 | 10:53.03 | 1:42.21 | 48978 | 56648
5 | 12:35.24 | 5:44.10 | 56649 | 82458
6 | 18:19.34 | 3:23.04 | 82459 | 97687
7 | 21:42.38 | 0:58.42 | 97688 | 102079
8 | 22:41.05 | 8:12.51 | 102080 | 139030
9 | 30:53.56 | 1:11.15 | 139031 | 144370
10 | 32:04.71 | 3:41.24 | 144371 | 160969
11 | 35:46.20 | 3:46.17 | 160970 | 177936
12 | 39:32.37 | 4:51.00 | 177937 | 199761
13 | 44:23.37 | 3:39.17 | 199762 | 216203
14 | 48:02.54 | 14:26.01 | 216204 | 281154


Range status and errors

Selected range

Filename G:\CD\Ten Years After - Stonedhenge (2002, Remastered, 8828982).wav

Peak level 98.8 %
Extraction speed 4.0 X
Range quality 100.0 %
Test CRC A24409A3
Copy CRC A24409A3
Copy OK

No errors occurred


AccurateRip summary

Track 1 accurately ripped (confidence 2) [9A0B6AD2] (AR v2)
Track 2 accurately ripped (confidence 2) [7D01DEA1] (AR v2)
Track 3 accurately ripped (confidence 2) [1E6A15FE] (AR v2)
Track 4 accurately ripped (confidence 2) [F3315088] (AR v2)
Track 5 accurately ripped (confidence 2) [DFEDA0BF] (AR v2)
Track 6 accurately ripped (confidence 2) [00F04BC8] (AR v2)
Track 7 accurately ripped (confidence 2) [FB302746] (AR v2)
Track 8 accurately ripped (confidence 2) [9A3AE057] (AR v2)
Track 9 accurately ripped (confidence 2) [836B7FB4] (AR v2)
Track 10 accurately ripped (confidence 2) [AAEC4051] (AR v2)
Track 11 accurately ripped (confidence 2) [EC80FD41] (AR v2)
Track 12 accurately ripped (confidence 2) [4BD63083] (AR v2)
Track 13 accurately ripped (confidence 2) [33B5E8A0] (AR v2)
Track 14 accurately ripped (confidence 2) [CC12F559] (AR v2)

All tracks accurately ripped

End of status report

foobar2000 1.1.18 / Dynamic Range Meter 1.1.1
log date: 2013-03-11 13:56:38

––––––––––––––––––––––––––––––––––––––––
Analyzed: Ten Years After / Stonedhenge (2002, Remastered, 8828982)
––––––––––––––––––––––––––––––––––––––––

DR Peak RMS Duration Track
––––––––––––––––––––––––––––––––––––––––
DR9 -0.10 dB -13.11 dB 4:52 01-Going To Try
DR12 -0.10 dB -15.76 dB 1:24 02-I Can't Live Without Lydia
DR10 -0.10 dB -11.77 dB 4:37 03-Woman Trouble
DR12 -0.10 dB -14.39 dB 1:42 04-Skoobly-Oobly-Doobob
DR9 -0.10 dB -10.92 dB 5:44 05-Hear Me Calling
DR8 -0.10 dB -13.14 dB 3:23 06-A Sad Song
DR10 -0.10 dB -12.64 dB 0:59 07-Three Blind Mice
DR12 -0.10 dB -16.27 dB 8:13 08-No Title
DR10 -3.41 dB -16.71 dB 1:11 09-Faro
DR9 -0.10 dB -11.15 dB 3:41 10-Speed Kills
DR9 -0.10 dB -11.87 dB 3:46 11-Hear Me Calling (Single Version) (Bonus)
DR11 -0.10 dB -13.28 dB 4:51 12-Women Trouble (US Version) (Bonus)
DR10 -0.12 dB -11.25 dB 3:39 13-I'm Going Home (Single Version) (Bonus)
DR11 -0.10 dB -13.98 dB 14:26 14-Boogie On (Bonus)
––––––––––––––––––––––––––––––––––––––––

Number of tracks: 14
Official DR value: DR10

Samplerate: 44100 Hz
Channels: 2
Bits per sample: 16
Bitrate: 708 kbps
Codec: FLAC

===========================

Ten Years After Discography (1967-2008) [Studio Albums]

CD3: Ten Years After - Ssssh. (1969)
EAC | Flac(Image) + Cue + Log & MP3 CBR 320Kbps
2004 | Remastered | EMI, 724357894920 | ~ 262 or 111 Mb
Blues Rock / British Blues / Rock & Roll / Jazz Rock

Ssssh was Ten Years After's new release at the time of their incendiary performance at the Woodstock Festival in August, 1969. As a result, it was their first hit album in the U.S., peaking at number 20 in September of that year. This recording is a primer of British blues-rock of the era, showcasing Alvin Lee's guitar pyrotechnics and the band's propulsive rhythm section. As with most of TYA's work, the lyrics were throwaways, but the music was hot. Featured is a lengthy cover of Sonny Boy Williamson's "Good Morning Little Schoolgirl," with reworked lyrics leaving little doubt as to what the singer had in mind for the title character. Also included was a 12-bar blues song with the ultimate generic blues title "I Woke Up This Morning." Ssssh marked the beginning of the band's two-year run of popularity on the U.S. album charts and in the underground FM-radio scene.

by Jim Newsom
Tracklist:

01. Bad Scene - 3:30
02. Two Time Mama - 2:03
03. Stoned Woman - 3:21
04. Good Morning Little Schoolgirl - 7:10
05. If You Should Love Me - 5:24
06. I Don't Know That You Don't Know My Name - 2:06
07. The Stomp - 4:30
08. I Woke This Morning - 5:31

Exact Audio Copy V1.0 beta 3 from 29. August 2011

EAC extraction logfile from 12. October 2012, 22:58

Ten Years After / Ssssh. (2004, Remastered, 724357894920)

Used drive : Optiarc DVD RW AD-5200S Adapter: 2 ID: 0

Read mode : Secure
Utilize accurate stream : Yes
Defeat audio cache : Yes
Make use of C2 pointers : No

Read offset correction : 48
Overread into Lead-In and Lead-Out : No
Fill up missing offset samples with silence : Yes
Delete leading and trailing silent blocks : No
Null samples used in CRC calculations : Yes
Used interface : Native Win32 interface for Win NT & 2000

Used output format : User Defined Encoder
Selected bitrate : 1024 kBit/s
Quality : High
Add ID3 tag : No
Command line compressor : C:\Program Files (x86)\Exact Audio Copy\FLAC\FLAC.EXE
Additional command line options : -8 -V -T "ARTIST=%artist%" -T "TITLE=%title%" -T "ALBUM=%albumtitle%" -T "DATE=%year%" -T "TRACKNUMBER=%tracknr%" -T "GENRE=%genre%" -T "PERFORMER=%albuminterpret%" -T "COMPOSER=%composer%" %haslyrics%–tag-from-file=LYRICS="%lyricsfile%"%haslyrics% -T "ALBUMARTIST=%albumartist%" -T "DISCNUMBER=%cdnumber%" -T "TOTALDISCS=%totalcds%" -T "TOTALTRACKS=%numtracks%" -T "COMMENT=%comment%" %source% -o %dest%


TOC of the extracted CD

Track | Start | Length | Start sector | End sector
––––––––––––––––––––––––––––-
1 | 0:00.00 | 3:30.27 | 0 | 15776
2 | 3:30.27 | 2:02.60 | 15777 | 24986
3 | 5:33.12 | 3:21.03 | 24987 | 40064
4 | 8:54.15 | 7:10.10 | 40065 | 72324
5 | 16:04.25 | 5:23.67 | 72325 | 96616
6 | 21:28.17 | 2:06.33 | 96617 | 106099
7 | 23:34.50 | 4:30.12 | 106100 | 126361
8 | 28:04.62 | 5:30.68 | 126362 | 151179


Range status and errors

Selected range

Filename G:\CD\Ten Years After - Ssssh. (2004, Remastered, 724357894920).wav

Peak level 93.6 %
Extraction speed 3.4 X
Range quality 100.0 %
Test CRC D1500B01
Copy CRC D1500B01
Copy OK

No errors occurred


AccurateRip summary

Track 1 accurately ripped (confidence 5) [20A1B068] (AR v1)
Track 2 accurately ripped (confidence 5) [0DA6D0A6] (AR v1)
Track 3 accurately ripped (confidence 5) [BADBD3DA] (AR v1)
Track 4 accurately ripped (confidence 5) [E6553E40] (AR v1)
Track 5 accurately ripped (confidence 5) [2CBFD8BE] (AR v1)
Track 6 accurately ripped (confidence 5) [05C7CDD4] (AR v1)
Track 7 accurately ripped (confidence 5) [C52FF58E] (AR v1)
Track 8 accurately ripped (confidence 5) [E751BB80] (AR v1)

All tracks accurately ripped

End of status report

foobar2000 1.1.18 / Dynamic Range Meter 1.1.1
log date: 2013-03-11 13:56:57

––––––––––––––––––––––––––––––––––––––––
Analyzed: Ten Years After / Ssssh. (2004, Remastered, 724357894920)
––––––––––––––––––––––––––––––––––––––––

DR Peak RMS Duration Track
––––––––––––––––––––––––––––––––––––––––
DR8 -0.57 dB -10.28 dB 3:30 01-Bad Scene
DR11 -0.59 dB -13.15 dB 2:03 02-Two Time Mama
DR9 -0.57 dB -10.72 dB 3:21 03-Stoned Woman
DR8 -0.57 dB -10.94 dB 7:10 04-Good Morning Little Schoolgirl
DR9 -0.57 dB -11.21 dB 5:24 05-If You Should Love Me
DR11 -1.72 dB -15.49 dB 2:06 06-I Don't Know That You Don't Know My Name
DR12 -0.57 dB -15.16 dB 4:30 07-The Stomp
DR9 -0.58 dB -10.73 dB 5:31 08-I Woke This Morning
––––––––––––––––––––––––––––––––––––––––

Number of tracks: 8
Official DR value: DR10

Samplerate: 44100 Hz
Channels: 2
Bits per sample: 16
Bitrate: 881 kbps
Codec: FLAC

===========================

Ten Years After Discography (1967-2008) [Studio Albums]

CD4: Ten Years After - Cricklewood Green (1970)
EAC | Flac(Image) + Cue + Log & MP3 CBR 320Kbps
2002 | Remastered | EMI, 5330952 | ~ 285 or 108 Mb | Scans(png, 300dpi)
Blues Rock / British Blues / Rock & Roll / Jazz Rock

Cricklewood Green provides the best example of Ten Years After's recorded sound. On this album, the band and engineer Andy Johns mix studio tricks and sound effects, blues-based song structures, a driving rhythm section, and Alvin Lee's signature lightning-fast guitar licks into a unified album that flows nicely from start to finish. Cricklewood Green opens with a pair of bluesy rockers, with "Working on the Road" propelled by a guitar and organ riff that holds the listener's attention through the use of tape manipulation as the song develops. "50,000 Miles Beneath My Brain" and "Love Like a Man" are classics of TYA's jam genre, with lyrically meaningless verses setting up extended guitar workouts that build in intensity, rhythmically and sonically. The latter was an FM-radio staple in the early '70s. "Year 3000 Blues" is a country romp sprinkled with Lee's silly sci-fi lyrics, while "Me and My Baby" concisely showcases the band's jazz licks better than any other TYA studio track, and features a tasty piano solo by Chick Churchill. It has a feel similar to the extended pieces on side one of the live album Undead. "Circles" is a hippie-ish acoustic guitar piece, while "As the Sun Still Burns Away" closes the album by building on another classic guitar-organ riff and more sci-fi sound effects.

by Jim Newsom
Tracklist:

01. Sugar The Road - 4:08
02. Working On The Road - 4:18
03. 50,000 Miles Beneath My Brain - 7:38
04. Year 3000 Blues - 2:25
05. Me And My Baby - 4:11
06. Love Like A Man - 7:38
07. Circles - 3:59
08. As The Sun Still Burns Away - 4:53
Bonus Tracks:
09. Warm Sun [bonus track] - 3:08
10. To No One [bonus track] - 3:49

Exact Audio Copy V1.0 beta 3 from 29. August 2011

EAC extraction logfile from 10. November 2012, 8:27

Ten Years After / Cricklewood Green

Used drive : Optiarc DVD RW AD-5200S Adapter: 2 ID: 0

Read mode : Secure
Utilize accurate stream : Yes
Defeat audio cache : Yes
Make use of C2 pointers : No

Read offset correction : 48
Overread into Lead-In and Lead-Out : No
Fill up missing offset samples with silence : Yes
Delete leading and trailing silent blocks : No
Null samples used in CRC calculations : Yes
Used interface : Native Win32 interface for Win NT & 2000

Used output format : User Defined Encoder
Selected bitrate : 1024 kBit/s
Quality : High
Add ID3 tag : No
Command line compressor : C:\Program Files (x86)\Exact Audio Copy\FLAC\FLAC.EXE
Additional command line options : -8 -V -T "ARTIST=%artist%" -T "TITLE=%title%" -T "ALBUM=%albumtitle%" -T "DATE=%year%" -T "TRACKNUMBER=%tracknr%" -T "GENRE=%genre%" -T "PERFORMER=%albuminterpret%" -T "COMPOSER=%composer%" %haslyrics%–tag-from-file=LYRICS="%lyricsfile%"%haslyrics% -T "ALBUMARTIST=%albumartist%" -T "DISCNUMBER=%cdnumber%" -T "TOTALDISCS=%totalcds%" -T "TOTALTRACKS=%numtracks%" -T "COMMENT=%comment%" %source% -o %dest%


TOC of the extracted CD

Track | Start | Length | Start sector | End sector
––––––––––––––––––––––––––––-
1 | 0:00.00 | 4:07.67 | 0 | 18591
2 | 4:07.67 | 4:17.53 | 18592 | 37919
3 | 8:25.45 | 7:37.50 | 37920 | 72244
4 | 16:03.20 | 2:25.09 | 72245 | 83128
5 | 18:28.29 | 4:10.42 | 83129 | 101920
6 | 22:38.71 | 7:38.05 | 101921 | 136275
7 | 30:17.01 | 3:59.01 | 136276 | 154201
8 | 34:16.02 | 4:52.63 | 154202 | 176164
9 | 39:08.65 | 3:08.20 | 176165 | 190284
10 | 42:17.10 | 3:49.37 | 190285 | 207496


Range status and errors

Selected range

Filename G:\CD\Ten Years After - Cricklewood Green.wav

Peak level 100.0 %
Extraction speed 3.7 X
Range quality 100.0 %
Test CRC F2412F32
Copy CRC F2412F32
Copy OK

No errors occurred


AccurateRip summary

Track 1 cannot be verified as accurate (confidence 4) [177F9095], AccurateRip returned [210E9B9B] (AR v2)
Track 2 cannot be verified as accurate (confidence 4) [B3C17223], AccurateRip returned [1B35DDDF] (AR v2)
Track 3 cannot be verified as accurate (confidence 4) [0E0D38C4], AccurateRip returned [9BCFC7FD] (AR v2)
Track 4 cannot be verified as accurate (confidence 4) [9489A1E7], AccurateRip returned [6E319B2A] (AR v2)
Track 5 cannot be verified as accurate (confidence 4) [847C8CC4], AccurateRip returned [405D6C0E] (AR v2)
Track 6 cannot be verified as accurate (confidence 4) [8037C4E4], AccurateRip returned [20D22D75] (AR v2)
Track 7 cannot be verified as accurate (confidence 4) [22976042], AccurateRip returned [2A7E2456] (AR v2)
Track 8 cannot be verified as accurate (confidence 4) [6A98795A], AccurateRip returned [8FDAD69A] (AR v2)
Track 9 cannot be verified as accurate (confidence 4) [3CEE102F], AccurateRip returned [06CEA2BA] (AR v2)
Track 10 cannot be verified as accurate (confidence 4) [7A2A3754], AccurateRip returned [394D6CA5] (AR v2)

No tracks could be verified as accurate
You may have a different pressing from the one(s) in the database

End of status report

foobar2000 1.1.18 / Dynamic Range Meter 1.1.1
log date: 2013-03-11 13:57:20

––––––––––––––––––––––––––––––––––––––––
Analyzed: Ten Years After / Cricklewood Green (2002, Remastered, EMI, 5330952)
––––––––––––––––––––––––––––––––––––––––

DR Peak RMS Duration Track
––––––––––––––––––––––––––––––––––––––––
DR8 -0.39 dB -10.49 dB 4:08 01-Sugar The Road
DR8 -0.40 dB -9.40 dB 4:18 02-Working On The Road
DR7 -0.46 dB -9.93 dB 7:38 03-50,000 Miles Beneath My Brain
DR10 -0.42 dB -11.76 dB 2:25 04-Year 3000 Blues
DR9 -0.89 dB -11.42 dB 4:11 05-Me And My Baby
DR8 -0.07 dB -9.66 dB 7:38 06-Love Like A Man
DR9 -1.89 dB -12.76 dB 3:59 07-Circles
DR7 -0.38 dB -10.51 dB 4:53 08-As The Sun Still Burns Away
DR9 -0.45 dB -10.83 dB 3:08 09-Warm Sun [bonus track]
DR9 0.00 dB -10.66 dB 3:49 10-To No One [bonus track]
––––––––––––––––––––––––––––––––––––––––

Number of tracks: 10
Official DR value: DR8

Samplerate: 44100 Hz
Channels: 2
Bits per sample: 16
Bitrate: 840 kbps
Codec: FLAC

===========================

Ten Years After Discography (1967-2008) [Studio Albums]

CD5: Ten Years After - Watt (1970)
EAC | Flac(Image) + Cue + Log & MP3 CBR 320Kbps
2008 | Remastered | EMI, 5099920815622 | ~ 287 or 127 Mb | Scans(png, 300dpi)
Blues Rock / British Blues / Rock & Roll / Jazz Rock

Watt had many of the same ingredients as its predecessor, Cricklewood Green, but wasn't nearly as well thought out. The band had obviously spent much time on the road, leaving little time for developing new material. Consequently, a cover of Chuck Berry's "Sweet Little Sixteen," recorded live at the Isle of Wight Festival, is included here, as is a short instrumental with the uninspired title "The Band With No Name." Other song titles like "I Say Yeah" and "My Baby Left Me" betray the lack of spark in Alvin Lee's songwriting. Nonetheless, his guitar work is fast and clean (though the licks are beginning to sound repetitive from album to album), and the band continues to cook in the manner exemplified best on Cricklewood Green.

by Jim Newsom
Tracklist:

01. I'm Coming On - 3:49
02. My Baby Left Me - 5:23
03. Think About The Times - 4:44
04. I Say Yeah - 5:17
05. The Band With No Name - 1:38
06. Gonna Run - 6:03
07. She Lies In The Morning - 7:25
08. Sweet Little Sixteen - 4:09

Exact Audio Copy V1.0 beta 3 from 29. August 2011

EAC extraction logfile from 12. October 2012, 23:25

Ten Years After / Watt (2008, Remastered, 5099920815622)

Used drive : Optiarc DVD RW AD-5200S Adapter: 2 ID: 0

Read mode : Secure
Utilize accurate stream : Yes
Defeat audio cache : Yes
Make use of C2 pointers : No

Read offset correction : 48
Overread into Lead-In and Lead-Out : No
Fill up missing offset samples with silence : Yes
Delete leading and trailing silent blocks : No
Null samples used in CRC calculations : Yes
Used interface : Native Win32 interface for Win NT & 2000

Used output format : User Defined Encoder
Selected bitrate : 1024 kBit/s
Quality : High
Add ID3 tag : No
Command line compressor : C:\Program Files (x86)\Exact Audio Copy\FLAC\FLAC.EXE
Additional command line options : -8 -V -T "ARTIST=%artist%" -T "TITLE=%title%" -T "ALBUM=%albumtitle%" -T "DATE=%year%" -T "TRACKNUMBER=%tracknr%" -T "GENRE=%genre%" -T "PERFORMER=%albuminterpret%" -T "COMPOSER=%composer%" %haslyrics%–tag-from-file=LYRICS="%lyricsfile%"%haslyrics% -T "ALBUMARTIST=%albumartist%" -T "DISCNUMBER=%cdnumber%" -T "TOTALDISCS=%totalcds%" -T "TOTALTRACKS=%numtracks%" -T "COMMENT=%comment%" %source% -o %dest%


TOC of the extracted CD

Track | Start | Length | Start sector | End sector
––––––––––––––––––––––––––––-
1 | 0:00.00 | 3:48.60 | 0 | 17159
2 | 3:48.60 | 5:23.37 | 17160 | 41421
3 | 9:12.22 | 4:43.38 | 41422 | 62684
4 | 13:55.60 | 5:17.05 | 62685 | 86464
5 | 19:12.65 | 1:37.47 | 86465 | 93786
6 | 20:50.37 | 6:02.73 | 93787 | 121009
7 | 26:53.35 | 7:24.40 | 121010 | 154349
8 | 34:18.00 | 4:09.25 | 154350 | 173049


Range status and errors

Selected range

Filename G:\CD\Ten Years After - Watt (2008, Remastered, 5099920815622).wav

Peak level 99.2 %
Extraction speed 3.5 X
Range quality 100.0 %
Test CRC 339CE4E2
Copy CRC 339CE4E2
Copy OK

No errors occurred


AccurateRip summary

Track 1 accurately ripped (confidence 4) [E19B4A89] (AR v2)
Track 2 accurately ripped (confidence 4) [9661FA9F] (AR v2)
Track 3 accurately ripped (confidence 4) [216F315E] (AR v2)
Track 4 accurately ripped (confidence 4) [D0AB99D8] (AR v2)
Track 5 accurately ripped (confidence 4) [5BF97A9E] (AR v2)
Track 6 accurately ripped (confidence 4) [4D215F45] (AR v2)
Track 7 accurately ripped (confidence 4) [2DAB54E1] (AR v2)
Track 8 accurately ripped (confidence 4) [90BF7B92] (AR v2)

All tracks accurately ripped

End of status report

foobar2000 1.1.18 / Dynamic Range Meter 1.1.1
log date: 2013-03-11 13:57:40

––––––––––––––––––––––––––––––––––––––––
Analyzed: Ten Years After / Watt (2008, Remastered, 5099920815622)
––––––––––––––––––––––––––––––––––––––––

DR Peak RMS Duration Track
––––––––––––––––––––––––––––––––––––––––
DR8 -0.07 dB -9.62 dB 3:49 01-I'm Coming On
DR9 -0.07 dB -11.37 dB 5:23 02-My Baby Left Me
DR9 -0.07 dB -12.37 dB 4:44 03-Think About The Times
DR7 -0.07 dB -8.98 dB 5:17 04-I Say Yeah
DR10 -0.08 dB -14.52 dB 1:38 05-The Band With No Name
DR10 -0.07 dB -12.21 dB 6:03 06-Gonna Run
DR10 -0.08 dB -13.13 dB 7:25 07-She Lies In The Morning
DR10 -0.08 dB -11.96 dB 4:09 08-Sweet Little Sixteen
––––––––––––––––––––––––––––––––––––––––

Number of tracks: 8
Official DR value: DR9

Samplerate: 44100 Hz
Channels: 2
Bits per sample: 16
Bitrate: 884 kbps
Codec: FLAC

===========================

Ten Years After Discography (1967-2008) [Studio Albums]

CD6: Ten Years After - A Space in Time (1971)
EAC | Flac(Image) + Cue + Log & MP3 CBR 320Kbps
2012 | Remastered | EMI, 5099962437929 | ~ 490 or 178 Mb | Scans(png, 300dpi)
Blues Rock / British Blues / Rock & Roll / Jazz Rock

A Space in Time was Ten Years After's best-selling album. This was due primarily to the strength of "I'd Love to Change the World," the band's only hit single, and one of the most ubiquitous AM and FM radio cuts of the summer of 1971. TYA's first album for Columbia, A Space in Time has more of a pop-oriented feel than any of their previous releases had. The individual cuts are shorter, and Alvin Lee displays a broader instrumental palette than before. In fact, six of the disc's ten songs are built around acoustic guitar riffs. However, there are still a couple of barn-burning jams. The leadoff track, "One of These Days," is a particularly scorching workout, featuring extended harmonica and guitar solos. After the opener, however, the album settles back into a more relaxed mood than one would have expected from Ten Years After. Many of the cuts make effective use of dynamic shifts, and the guitar solos are generally more understated than on previous outings. The production on A Space in Time is crisp and clean, a sound quite different from the denseness of its predecessors. Though not as consistent as Cricklewood Green, A Space in Time has its share of sparkling moments.

by Jim Newsom
Tracklist:

Original 1971 Mix
01. One of these Days - 5:58
02. Here They Come - 4:36
03. I'd Love To Change The World - 3:45
04. Over The Hill - 2:29
05. Baby Won't You Let Me Rock 'N Roll You - 2:15
06. Once There Was A Time - 3:23
07. Let The Sky Fall - 4:20
08. Hard Monkeys - 3:11
09. I've Been There Too - 5:46
10. Uncle Jam - 2:00

1973 Quad Mix to Stereo
11. One of these Days - 5:57
12. Here They Come - 4:37
13. I'd Love To Change The World - 3:44
14. Over The Hill - 2:29
15. Baby Won't You Let Me Rock 'N Roll You - 2:19
16. Once There Was A Time - 3:27
17. Let The Sky Fall - 4:19
18. Hard Monkeys - 3:13
19. I've Been There Too - 5:49
20. Uncle Jam - 1:56

Exact Audio Copy V1.0 beta 3 from 29. August 2011

EAC extraction logfile from 13. October 2012, 0:08

Ten Years After / A Space In Time (2012, Remastered, 5099962437929)

Used drive : Optiarc DVD RW AD-5200S Adapter: 2 ID: 0

Read mode : Secure
Utilize accurate stream : Yes
Defeat audio cache : Yes
Make use of C2 pointers : No

Read offset correction : 48
Overread into Lead-In and Lead-Out : No
Fill up missing offset samples with silence : Yes
Delete leading and trailing silent blocks : No
Null samples used in CRC calculations : Yes
Used interface : Native Win32 interface for Win NT & 2000

Used output format : User Defined Encoder
Selected bitrate : 1024 kBit/s
Quality : High
Add ID3 tag : No
Command line compressor : C:\Program Files (x86)\Exact Audio Copy\FLAC\FLAC.EXE
Additional command line options : -8 -V -T "ARTIST=%artist%" -T "TITLE=%title%" -T "ALBUM=%albumtitle%" -T "DATE=%year%" -T "TRACKNUMBER=%tracknr%" -T "GENRE=%genre%" -T "PERFORMER=%albuminterpret%" -T "COMPOSER=%composer%" %haslyrics%–tag-from-file=LYRICS="%lyricsfile%"%haslyrics% -T "ALBUMARTIST=%albumartist%" -T "DISCNUMBER=%cdnumber%" -T "TOTALDISCS=%totalcds%" -T "TOTALTRACKS=%numtracks%" -T "COMMENT=%comment%" %source% -o %dest%


TOC of the extracted CD

Track | Start | Length | Start sector | End sector
––––––––––––––––––––––––––––-
1 | 0:00.00 | 5:58.00 | 0 | 26849
2 | 5:58.00 | 4:35.38 | 26850 | 47512
3 | 10:33.38 | 3:44.52 | 47513 | 64364
4 | 14:18.15 | 2:28.44 | 64365 | 75508
5 | 16:46.59 | 2:14.50 | 75509 | 85608
6 | 19:01.34 | 3:23.18 | 85609 | 100851
7 | 22:24.52 | 4:20.26 | 100852 | 120377
8 | 26:45.03 | 3:11.32 | 120378 | 134734
9 | 29:56.35 | 5:45.43 | 134735 | 160652
10 | 35:42.03 | 2:00.17 | 160653 | 169669
11 | 37:42.20 | 5:56.38 | 169670 | 196407
12 | 43:38.58 | 4:36.62 | 196408 | 217169
13 | 48:15.45 | 3:43.70 | 217170 | 233964
14 | 51:59.40 | 2:29.00 | 233965 | 245139
15 | 54:28.40 | 2:19.20 | 245140 | 255584
16 | 56:47.60 | 3:26.70 | 255585 | 271104
17 | 60:14.55 | 4:19.13 | 271105 | 290542
18 | 64:33.68 | 3:13.17 | 290543 | 305034
19 | 67:47.10 | 5:49.10 | 305035 | 331219
20 | 73:36.20 | 1:55.40 | 331220 | 339884


Range status and errors

Selected range

Filename G:\CD\Ten Years After - A Space In Time (2012, Remastered, 5099962437929).wav

Peak level 99.9 %
Extraction speed 4.4 X
Range quality 99.9 %
Test CRC EF973B84
Copy CRC EF973B84
Copy OK

No errors occurred


AccurateRip summary

Track 1 not present in database
Track 2 not present in database
Track 3 not present in database
Track 4 not present in database
Track 5 not present in database
Track 6 not present in database
Track 7 not present in database
Track 8 not present in database
Track 9 not present in database
Track 10 not present in database
Track 11 not present in database
Track 12 not present in database
Track 13 not present in database
Track 14 not present in database
Track 15 not present in database
Track 16 not present in database
Track 17 not present in database
Track 18 not present in database
Track 19 not present in database
Track 20 not present in database

None of the tracks are present in the AccurateRip database

End of status report

foobar2000 1.1.18 / Dynamic Range Meter 1.1.1
log date: 2013-03-11 13:58:08

––––––––––––––––––––––––––––––––––––––––
Analyzed: Ten Years After / A Space In Time (2012, Remastered, 5099962437929)
––––––––––––––––––––––––––––––––––––––––

DR Peak RMS Duration Track
––––––––––––––––––––––––––––––––––––––––
DR6 -0.34 dB -9.10 dB 5:58 01-One of these Days
DR9 -0.49 dB -13.51 dB 4:36 02-Here They Come
DR9 -0.56 dB -12.75 dB 3:45 03-I'd Love To Change The World
DR9 -0.50 dB -11.88 dB 2:29 04-Over The Hill
DR7 -0.25 dB -9.09 dB 2:15 05-Baby Won't You Let Me Rock 'N Roll You
DR9 -0.39 dB -11.79 dB 3:23 06-Once There Was A Time
DR9 -0.45 dB -12.39 dB 4:20 07-Let The Sky Fall
DR8 -0.46 dB -11.26 dB 3:11 08-Hard Monkeys
DR7 -0.48 dB -10.33 dB 5:46 09-I've Been There Too
DR10 -0.60 dB -14.16 dB 2:00 10-Uncle Jam
DR9 -0.04 dB -11.71 dB 5:57 11-One of these Days
DR9 -0.09 dB -11.58 dB 4:37 12-Here They Come
DR9 -0.16 dB -11.87 dB 3:44 13-I'd Love To Change The World
DR12 -0.21 dB -15.07 dB 2:29 14-Over The Hill
DR9 -0.16 dB -11.01 dB 2:19 15-Baby Won't You Let Me Rock 'N Roll You
DR11 -0.01 dB -12.95 dB 3:27 16-Once There Was A Time
DR10 0.00 dB -12.66 dB 4:19 17-Let The Sky Fall
DR10 -0.12 dB -12.35 dB 3:13 18-Hard Monkeys
DR11 -0.26 dB -14.44 dB 5:49 19-I've Been There Too
DR11 -0.58 dB -14.10 dB 1:56 20-Uncle Jam
––––––––––––––––––––––––––––––––––––––––

Number of tracks: 20
Official DR value: DR9

Samplerate: 44100 Hz
Channels: 2
Bits per sample: 16
Bitrate: 881 kbps
Codec: FLAC

===========================

Ten Years After Discography (1967-2008) [Studio Albums]

CD7: Ten Years After - Rock & Roll Music To The World (1972)
EAC | Flac(Image) + Cue + Log & MP3 CBR 320Kbps
1997 | Remastered | BGO, BGOCD348 | ~ 344 or 157 Mb | Scans(png, 300dpi)
Blues Rock / British Blues / Rock & Roll / Jazz Rock

Here, Ten Years After expanded on their boogie base and continued the hits. The title cut was the hit, and while they continued to groove along in the boogie atmosphere, things on Rock & Roll Music to the World sounded a bit too tame for the thundering hordes to chant along to at the time. "Turned Off T.V. Blues" showed just how tiring touring was getting for the band, and there wasn't much else here to bring out the beast to party with. A little too much of the same thing was starting to stunt this band's growth, except in their wallets.

by James Chrispell
Tracklist:

01. You Give Me Loving - 6:34
02. Convention Prevention - 4:23
03. Turned Off T.V. Blues - 5:13
04. Standing At The Station - 7:11
05. You Can't Win Them All - 4:06
06. Religion - 5:49
07. Choo Choo Mama - 4:02
08. Tomorrow I'll Be Out Of Town - 4:29
09. Rock & Roll Music To The World - 3:47

Exact Audio Copy V1.0 beta 3 from 29. August 2011

EAC extraction logfile from 17. October 2012, 1:38

Ten Years After / Rock & Roll Music To The World

Used drive : Optiarc DVD RW AD-5200S Adapter: 2 ID: 0

Read mode : Secure
Utilize accurate stream : Yes
Defeat audio cache : Yes
Make use of C2 pointers : No

Read offset correction : 48
Overread into Lead-In and Lead-Out : No
Fill up missing offset samples with silence : Yes
Delete leading and trailing silent blocks : No
Null samples used in CRC calculations : Yes
Used interface : Native Win32 interface for Win NT & 2000

Used output format : User Defined Encoder
Selected bitrate : 1024 kBit/s
Quality : High
Add ID3 tag : No
Command line compressor : C:\Program Files (x86)\Exact Audio Copy\FLAC\FLAC.EXE
Additional command line options : -8 -V -T "ARTIST=%artist%" -T "TITLE=%title%" -T "ALBUM=%albumtitle%" -T "DATE=%year%" -T "TRACKNUMBER=%tracknr%" -T "GENRE=%genre%" -T "PERFORMER=%albuminterpret%" -T "COMPOSER=%composer%" %haslyrics%–tag-from-file=LYRICS="%lyricsfile%"%haslyrics% -T "ALBUMARTIST=%albumartist%" -T "DISCNUMBER=%cdnumber%" -T "TOTALDISCS=%totalcds%" -T "TOTALTRACKS=%numtracks%" -T "COMMENT=%comment%" %source% -o %dest%


TOC of the extracted CD

Track | Start | Length | Start sector | End sector
––––––––––––––––––––––––––––-
1 | 0:00.00 | 6:33.60 | 0 | 29534
2 | 6:33.60 | 4:23.10 | 29535 | 49269
3 | 10:56.70 | 5:13.10 | 49270 | 72754
4 | 16:10.05 | 7:11.17 | 72755 | 105096
5 | 23:21.22 | 4:06.30 | 105097 | 123576
6 | 27:27.52 | 5:49.08 | 123577 | 149759
7 | 33:16.60 | 4:02.12 | 149760 | 167921
8 | 37:18.72 | 4:29.23 | 167922 | 188119
9 | 41:48.20 | 3:47.27 | 188120 | 205171


Range status and errors

Selected range

Filename G:\CD\Ten Years After - Rock & Roll Music To The World.wav

Peak level 97.1 %
Extraction speed 3.7 X
Range quality 100.0 %
Test CRC 69EE43E9
Copy CRC 69EE43E9
Copy OK

No errors occurred


AccurateRip summary

Track 1 cannot be verified as accurate (confidence 8) [3A0CE9D0], AccurateRip returned [39004379] (AR v2)
Track 2 cannot be verified as accurate (confidence 8) [F25DEAE1], AccurateRip returned [5784F746] (AR v2)
Track 3 cannot be verified as accurate (confidence 8) [40D08A1E], AccurateRip returned [8C89172D] (AR v2)
Track 4 cannot be verified as accurate (confidence 8) [6BA5EFA6], AccurateRip returned [D0F6EF79] (AR v2)
Track 5 cannot be verified as accurate (confidence 8) [EFD78431], AccurateRip returned [FFE9A3EA] (AR v2)
Track 6 cannot be verified as accurate (confidence 8) [190323F7], AccurateRip returned [7E2A21F0] (AR v2)
Track 7 cannot be verified as accurate (confidence 8) [7645EBEF], AccurateRip returned [BEBCF884] (AR v2)
Track 8 cannot be verified as accurate (confidence 8) [45E8B8A1], AccurateRip returned [D4036172] (AR v2)
Track 9 cannot be verified as accurate (confidence 7) [47B958A4], AccurateRip returned [FF4164BC] (AR v2)

No tracks could be verified as accurate
You may have a different pressing from the one(s) in the database

End of status report

foobar2000 1.1.18 / Dynamic Range Meter 1.1.1
log date: 2013-03-11 13:58:29

––––––––––––––––––––––––––––––––––––––––
Analyzed: Ten Years After / Rock & Roll Music To The World (1997, Remastered, BGO, BGOCD348)
––––––––––––––––––––––––––––––––––––––––

DR Peak RMS Duration Track
––––––––––––––––––––––––––––––––––––––––
DR9 -0.35 dB -11.98 dB 6:34 01-You Give Me Loving
DR9 -0.31 dB -11.33 dB 4:23 02-Convention Prevention
DR9 -0.43 dB -11.45 dB 5:13 03-Turned Off T.V. Blues
DR8 -0.37 dB -11.17 dB 7:11 04-Standing At The Station
DR10 -0.38 dB -12.10 dB 4:06 05-You Can't Win Them All
DR10 -0.59 dB -12.75 dB 5:49 06-Religion
DR9 -0.68 dB -11.56 dB 4:02 07-Choo Choo Mama
DR9 -0.45 dB -11.11 dB 4:29 08-Tomorrow I'll Be Out Of Town
DR8 -0.25 dB -10.37 dB 3:47 09-Rock & Roll Music To The World
––––––––––––––––––––––––––––––––––––––––

Number of tracks: 9
Official DR value: DR9

Samplerate: 44100 Hz
Channels: 2
Bits per sample: 16
Bitrate: 867 kbps
Codec: FLAC

===========================

Ten Years After Discography (1967-2008) [Studio Albums]

CD8: Ten Years After - Positive Vibrations (1974)
EAC | Flac(Image) + Cue + Log & MP3 CBR 320Kbps
2004 | BGO, BGOCD617 | ~ 343 or 145 Mb | Scans(png, 300dpi)
Blues Rock / British Blues / Rock & Roll / Jazz Rock

There's not much happening here. By the time Positive Vibrations was released, Ten Years After had run out of gas. Leader Alvin Lee had already released two solo albums, "On the Road to Freedom" and "In Flight," and the band was simply going through the motions on this album. The band broke up following its release.

by Jim Newsom
Tracklist:

01. Nowhere to Run - 4:03
02. Positive Vibrations - 4:20
03. Stone Me - 4:57
04. Without You - 4:00
05. Going Back to Birmingham - 2:40
06. Its Getting Harder - 4:25
07. You're Driving Me Crazy - 2:26
08. Look into My Life - 4:18
09. Look Me Straight into the Eyes - 6:20
10. I Wanted to Boogie - 3:36

Exact Audio Copy V1.0 beta 3 from 29. August 2011

EAC extraction logfile from 10. November 2012, 0:15

Ten Years After / Positive Vibrations

Used drive : Optiarc DVD RW AD-5200S Adapter: 2 ID: 0

Read mode : Secure
Utilize accurate stream : Yes
Defeat audio cache : Yes
Make use of C2 pointers : No

Read offset correction : 48
Overread into Lead-In and Lead-Out : No
Fill up missing offset samples with silence : Yes
Delete leading and trailing silent blocks : No
Null samples used in CRC calculations : Yes
Used interface : Native Win32 interface for Win NT & 2000

Used output format : User Defined Encoder
Selected bitrate : 1024 kBit/s
Quality : High
Add ID3 tag : No
Command line compressor : C:\Program Files (x86)\Exact Audio Copy\FLAC\FLAC.EXE
Additional command line options : -8 -V -T "ARTIST=%artist%" -T "TITLE=%title%" -T "ALBUM=%albumtitle%" -T "DATE=%year%" -T "TRACKNUMBER=%tracknr%" -T "GENRE=%genre%" -T "PERFORMER=%albuminterpret%" -T "COMPOSER=%composer%" %haslyrics%–tag-from-file=LYRICS="%lyricsfile%"%haslyrics% -T "ALBUMARTIST=%albumartist%" -T "DISCNUMBER=%cdnumber%" -T "TOTALDISCS=%totalcds%" -T "TOTALTRACKS=%numtracks%" -T "COMMENT=%comment%" %source% -o %dest%


TOC of the extracted CD

Track | Start | Length | Start sector | End sector
––––––––––––––––––––––––––––-
1 | 0:00.00 | 4:02.65 | 0 | 18214
2 | 4:02.65 | 4:20.09 | 18215 | 37723
3 | 8:22.74 | 4:57.08 | 37724 | 60006
4 | 13:20.07 | 4:00.09 | 60007 | 78015
5 | 17:20.16 | 2:39.39 | 78016 | 89979
6 | 19:59.55 | 4:24.68 | 89980 | 109847
7 | 24:24.48 | 2:26.26 | 109848 | 120823
8 | 26:50.74 | 4:18.18 | 120824 | 140191
9 | 31:09.17 | 6:20.11 | 140192 | 168702
10 | 37:29.28 | 3:36.30 | 168703 | 184932


Range status and errors

Selected range

Filename G:\CD\Ten Years After - Positive Vibrations.wav

Peak level 100.0 %
Extraction speed 3.6 X
Range quality 99.9 %
Test CRC C94DBE4B
Copy CRC C94DBE4B
Copy OK

No errors occurred


AccurateRip summary

Track 1 cannot be verified as accurate (confidence 6) [B1EA3228], AccurateRip returned [9FF771D4] (AR v2)
Track 2 cannot be verified as accurate (confidence 6) [4C67F4EC], AccurateRip returned [AD93306D] (AR v2)
Track 3 cannot be verified as accurate (confidence 6) [408D7361], AccurateRip returned [B6E17287] (AR v2)
Track 4 cannot be verified as accurate (confidence 6) [696C8E93], AccurateRip returned [C799A736] (AR v2)
Track 5 cannot be verified as accurate (confidence 6) [06A04700], AccurateRip returned [EE05BA5E] (AR v2)
Track 6 cannot be verified as accurate (confidence 6) [30799CBE], AccurateRip returned [91DE6EEA] (AR v2)
Track 7 cannot be verified as accurate (confidence 6) [16B73865], AccurateRip returned [EC482AD0] (AR v2)
Track 8 cannot be verified as accurate (confidence 6) [7D250190], AccurateRip returned [ACE7E881] (AR v2)
Track 9 cannot be verified as accurate (confidence 6) [73A34D98], AccurateRip returned [24EB3658] (AR v2)
Track 10 cannot be verified as accurate (confidence 6) [51F5B748], AccurateRip returned [47540142] (AR v2)

No tracks could be verified as accurate
You may have a different pressing from the one(s) in the database

End of status report

foobar2000 1.1.18 / Dynamic Range Meter 1.1.1
log date: 2013-03-11 13:58:49

––––––––––––––––––––––––––––––––––––––––
Analyzed: Ten Years After / Positive Vibrations (2004, BGO, BGOCD617)
––––––––––––––––––––––––––––––––––––––––

DR Peak RMS Duration Track
––––––––––––––––––––––––––––––––––––––––
DR8 0.00 dB -9.36 dB 4:03 01-Nowhere to Run
DR10 0.00 dB -10.52 dB 4:20 02-Positive Vibrations
DR10 0.00 dB -11.69 dB 4:57 03-Stone Me
DR9 0.00 dB -11.46 dB 4:00 04-Without You
DR9 0.00 dB -9.74 dB 2:40 05-Going Back to Birmingham
DR8 0.00 dB -9.28 dB 4:25 06-Its Getting Harder
DR9 0.00 dB -9.70 dB 2:26 07-You're Driving Me Crazy
DR9 0.00 dB -10.26 dB 4:18 08-Look into My Life
DR9 0.00 dB -10.15 dB 6:20 09-Look Me Straight into the Eyes
DR10 0.00 dB -10.44 dB 3:36 10-I Wanted to Boogie
––––––––––––––––––––––––––––––––––––––––

Number of tracks: 10
Official DR value: DR9

Samplerate: 44100 Hz
Channels: 2
Bits per sample: 16
Bitrate: 951 kbps
Codec: FLAC

===========================

Ten Years After Discography (1967-2008) [Studio Albums]

CD9: Ten Years After - About Time (1989)
EAC | Flac(Image) + Cue + Log & MP3 CBR 320Kbps
2012 | Eastworld, EW0078CD | ~ 403 or 158 Mb | Scans(png, 300dpi)
Blues Rock / British Blues / Rock & Roll / Jazz Rock

A Space in Time was Ten Years After's best-selling album. This was due primarily to the strength of "I'd Love to Change the World," the band's only hit single, and one of the most ubiquitous AM and FM radio cuts of the summer of 1971. TYA's first album for Columbia, A Space in Time has more of a pop-oriented feel than any of their previous releases had. The individual cuts are shorter, and Alvin Lee displays a broader instrumental palette than before. In fact, six of the disc's ten songs are built around acoustic guitar riffs. However, there are still a couple of barn-burning jams. The leadoff track, "One of These Days," is a particularly scorching workout, featuring extended harmonica and guitar solos. After the opener, however, the album settles back into a more relaxed mood than one would have expected from Ten Years After. Many of the cuts make effective use of dynamic shifts, and the guitar solos are generally more understated than on previous outings. The production on A Space in Time is crisp and clean, a sound quite different from the denseness of its predecessors. Though not as consistent as Cricklewood Green, A Space in Time has its share of sparkling moments.

by Jim Newsom
Tracklist:

01. Highway of Love - 5:13
02. Let's Shake It Up - 5:22
03. I Get All Shook Up - 4:42
04. Victim of Circumstance - 4:32
05. Going to Chicago - 4:30
06. Saturday Night - 4:09
07. Bad Blood - 7:13
08. Working in a Parking Lot - 4:57
09. Wild is the River - 3:56
10. Outside My Window - 5:49
11. Waiting For The Judgement Day - 4:32

Exact Audio Copy V1.0 beta 3 from 29. August 2011

EAC extraction logfile from 10. November 2012, 6:45

Ten Years After / About Time

Used drive : Optiarc DVD RW AD-5200S Adapter: 2 ID: 0

Read mode : Secure
Utilize accurate stream : Yes
Defeat audio cache : Yes
Make use of C2 pointers : No

Read offset correction : 48
Overread into Lead-In and Lead-Out : No
Fill up missing offset samples with silence : Yes
Delete leading and trailing silent blocks : No
Null samples used in CRC calculations : Yes
Used interface : Native Win32 interface for Win NT & 2000

Used output format : User Defined Encoder
Selected bitrate : 1024 kBit/s
Quality : High
Add ID3 tag : No
Command line compressor : C:\Program Files (x86)\Exact Audio Copy\FLAC\FLAC.EXE
Additional command line options : -8 -V -T "ARTIST=%artist%" -T "TITLE=%title%" -T "ALBUM=%albumtitle%" -T "DATE=%year%" -T "TRACKNUMBER=%tracknr%" -T "GENRE=%genre%" -T "PERFORMER=%albuminterpret%" -T "COMPOSER=%composer%" %haslyrics%–tag-from-file=LYRICS="%lyricsfile%"%haslyrics% -T "ALBUMARTIST=%albumartist%" -T "DISCNUMBER=%cdnumber%" -T "TOTALDISCS=%totalcds%" -T "TOTALTRACKS=%numtracks%" -T "COMMENT=%comment%" %source% -o %dest%


TOC of the extracted CD

Track | Start | Length | Start sector | End sector
––––––––––––––––––––––––––––-
1 | 0:00.00 | 5:12.62 | 0 | 23461
2 | 5:12.62 | 5:22.20 | 23462 | 47631
3 | 10:35.07 | 4:41.73 | 47632 | 68779
4 | 15:17.05 | 4:32.17 | 68780 | 89196
5 | 19:49.22 | 4:30.05 | 89197 | 109451
6 | 24:19.27 | 4:08.55 | 109452 | 128106
7 | 28:28.07 | 7:13.33 | 128107 | 160614
8 | 35:41.40 | 4:57.00 | 160615 | 182889
9 | 40:38.40 | 3:55.67 | 182890 | 200581
10 | 44:34.32 | 5:48.58 | 200582 | 226739
11 | 50:23.15 | 4:31.60 | 226740 | 247124


Range status and errors

Selected range

Filename G:\CD\Ten Years After - About Time.wav

Peak level 98.5 %
Extraction speed 3.9 X
Range quality 100.0 %
Test CRC ED5FF4E9
Copy CRC ED5FF4E9
Copy OK

No errors occurred


AccurateRip summary

Track 1 not present in database
Track 2 not present in database
Track 3 not present in database
Track 4 not present in database
Track 5 not present in database
Track 6 not present in database
Track 7 not present in database
Track 8 not present in database
Track 9 not present in database
Track 10 not present in database
Track 11 not present in database

None of the tracks are present in the AccurateRip database

End of status report

foobar2000 1.1.18 / Dynamic Range Meter 1.1.1
log date: 2013-03-11 13:59:13

––––––––––––––––––––––––––––––––––––––––
Analyzed: Ten Years After / About Time (2012, EW0078CD)
––––––––––––––––––––––––––––––––––––––––

DR Peak RMS Duration Track
––––––––––––––––––––––––––––––––––––––––
DR11 -0.13 dB -11.90 dB 5:13 01-Highway of Love
DR11 -0.13 dB -11.89 dB 5:22 02-Let's Shake It Up
DR15 -0.13 dB -16.39 dB 4:42 03-I Get All Shook Up
DR11 -0.13 dB -12.26 dB 4:32 04-Victim of Circumstance
DR12 -0.13 dB -13.31 dB 4:30 05-Going to Chicago
DR11 -0.13 dB -12.01 dB 4:09 06-Saturday Night
DR11 -0.13 dB -12.51 dB 7:13 07-Bad Blood
DR12 -0.13 dB -13.17 dB 4:57 08-Working in a Parking Lot
DR11 -0.13 dB -12.57 dB 3:56 09-Wild is the River
DR13 -0.14 dB -14.90 dB 5:49 10-Outside My Window
DR11 -0.14 dB -11.62 dB 4:32 11-Waiting For The Judgement Day
––––––––––––––––––––––––––––––––––––––––

Number of tracks: 11
Official DR value: DR12

Samplerate: 44100 Hz
Channels: 2
Bits per sample: 16
Bitrate: 926 kbps
Codec: FLAC

===========================

Ten Years After Discography (1967-2008) [Studio Albums]

CD10: Ten Years After - Now (2005)
EAC | Flac(Image) + Cue + Log & MP3 CBR 320Kbps
True North, TND394 | ~ 460 or 145 Mb | Scans(png, 300dpi)
Blues Rock / British Blues / Rock & Roll / Jazz Rock

Ten Years After without Alvin Lee is utter blasphemy in some longtime fans' eyes, but that's exactly what occurred on the 2004 release by this veteran blues-rock outfit, Now. Out went Lee, and in came replacement singer/guitarist Joe Gooch, who joins longtime members Chick Churchill (keys), Leo Lyons (bass), and Ric Lee (drums). Any fans having reservations about how well Gooch fits in will quickly have their worries erased – the group's newest member possesses a fine voice (check the laid-back closing track, "Changes"), and can throw down boogie riffs with the best of them ("When It All Falls Down," "Time to Kill," etc.). It may even appear as though the presence of Gooch has breathed new life into the band, as Now is Ten Years After's most focused and strongest studio album in quite some time. As evidenced by Now, the classic Ten Years After sound and approach remain the same, although now a bit more refined and mature than the wilder early records.

by Greg Prato
Tracklist:

01. When It All Falls Down - 3:28
02. A Hundred Miles High - 7:05
03. Time To Kill - 4:32
04. Make It Easy For You - 5:32
05. Voice Inside Your Head - 4:34
06. King Of The Blues - 3:36
07. Long Time Running - 6:11
08. Reasons Why - 4:40
09. Changes - 5:14
Bonus Tracks:
10. I Love To Change The World (live) - 6:00
11. Going Home (live) - 10:46

Exact Audio Copy V1.0 beta 3 from 29. August 2011

EAC extraction logfile from 10. November 2012, 7:22

Ten Years After / Now

Used drive : Optiarc DVD RW AD-5200S Adapter: 2 ID: 0

Read mode : Secure
Utilize accurate stream : Yes
Defeat audio cache : Yes
Make use of C2 pointers : No

Read offset correction : 48
Overread into Lead-In and Lead-Out : No
Fill up missing offset samples with silence : Yes
Delete leading and trailing silent blocks : No
Null samples used in CRC calculations : Yes
Used interface : Native Win32 interface for Win NT & 2000

Used output format : User Defined Encoder
Selected bitrate : 1024 kBit/s
Quality : High
Add ID3 tag : No
Command line compressor : C:\Program Files (x86)\Exact Audio Copy\FLAC\FLAC.EXE
Additional command line options : -8 -V -T "ARTIST=%artist%" -T "TITLE=%title%" -T "ALBUM=%albumtitle%" -T "DATE=%year%" -T "TRACKNUMBER=%tracknr%" -T "GENRE=%genre%" -T "PERFORMER=%albuminterpret%" -T "COMPOSER=%composer%" %haslyrics%–tag-from-file=LYRICS="%lyricsfile%"%haslyrics% -T "ALBUMARTIST=%albumartist%" -T "DISCNUMBER=%cdnumber%" -T "TOTALDISCS=%totalcds%" -T "TOTALTRACKS=%numtracks%" -T "COMMENT=%comment%" %source% -o %dest%


TOC of the extracted CD

Track | Start | Length | Start sector | End sector
––––––––––––––––––––––––––––-
1 | 0:00.00 | 3:28.03 | 0 | 15602
2 | 3:28.03 | 7:05.07 | 15603 | 47484
3 | 10:33.10 | 4:32.33 | 47485 | 67917
4 | 15:05.43 | 5:32.17 | 67918 | 92834
5 | 20:37.60 | 4:33.63 | 92835 | 113372
6 | 25:11.48 | 3:35.56 | 113373 | 129553
7 | 28:47.29 | 6:11.19 | 129554 | 157397
8 | 34:58.48 | 4:39.46 | 157398 | 178368
9 | 39:38.19 | 5:14.25 | 178369 | 201943
10 | 44:52.44 | 5:59.47 | 201944 | 228915
11 | 50:52.16 | 10:45.73 | 228916 | 277363


Range status and errors

Selected range

Filename G:\CD\Ten Years After - Now.wav

Peak level 100.0 %
Extraction speed 4.1 X
Range quality 99.9 %
Test CRC E6946C93
Copy CRC E6946C93
Copy OK

No errors occurred


AccurateRip summary

Track 1 cannot be verified as accurate (confidence 6) [2072A600], AccurateRip returned [0394A05E] (AR v2)
Track 2 cannot be verified as accurate (confidence 6) [F918E711], AccurateRip returned [75E628AE] (AR v2)
Track 3 cannot be verified as accurate (confidence 6) [302E3DDB], AccurateRip returned [106AB0F6] (AR v2)
Track 4 cannot be verified as accurate (confidence 6) [D382F97A], AccurateRip returned [9E0BB82E] (AR v2)
Track 5 cannot be verified as accurate (confidence 6) [6B338004], AccurateRip returned [C2FBEA25] (AR v2)
Track 6 cannot be verified as accurate (confidence 6) [23A88966], AccurateRip returned [C906ABD8] (AR v2)
Track 7 cannot be verified as accurate (confidence 6) [F2E55309], AccurateRip returned [1F0DC9E8] (AR v2)
Track 8 cannot be verified as accurate (confidence 6) [560AE389], AccurateRip returned [A7D54D4A] (AR v2)
Track 9 cannot be verified as accurate (confidence 6) [6692781B], AccurateRip returned [F06FD6C9] (AR v2)
Track 10 cannot be verified as accurate (confidence 6) [0CB8171D], AccurateRip returned [3155C770] (AR v2)
Track 11 cannot be verified as accurate (confidence 6) [2E1F0DBF], AccurateRip returned [838245C7] (AR v2)

No tracks could be verified as accurate
You may have a different pressing from the one(s) in the database

End of status report

foobar2000 1.1.18 / Dynamic Range Meter 1.1.1
log date: 2013-03-11 13:59:40

––––––––––––––––––––––––––––––––––––––––
Analyzed: Ten Years After / Now (2005, TND394)
––––––––––––––––––––––––––––––––––––––––

DR Peak RMS Duration Track
––––––––––––––––––––––––––––––––––––––––
DR9 0.00 dB -9.18 dB 3:28 01-When It All Falls Down
DR6 0.00 dB -7.04 dB 7:05 02-A Hundred Miles High
DR9 0.00 dB -9.66 dB 4:32 03-Time To Kill
DR6 0.00 dB -6.49 dB 5:32 04-Make It Easy For You
DR8 0.00 dB -9.00 dB 4:34 05-Voice Inside Your Head
DR7 0.00 dB -7.95 dB 3:36 06-King Of The Blues
DR9 0.00 dB -9.53 dB 6:11 07-Long Time Running
DR9 0.00 dB -9.92 dB 4:40 08-Reasons Why
DR8 0.00 dB -8.79 dB 5:14 09-Changes
DR8 -0.20 dB -10.36 dB 6:00 10-I Love To Change The World (Live)
DR6 -0.20 dB -7.79 dB 10:46 11-Going Home (live)
––––––––––––––––––––––––––––––––––––––––

Number of tracks: 11
Official DR value: DR8

Samplerate: 44100 Hz
Channels: 2
Bits per sample: 16
Bitrate: 1013 kbps
Codec: FLAC

===========================

Ten Years After Discography (1967-2008) [Studio Albums]

CD11: Ten Years After - Evolution (2008)
EAC | Flac(Image) + Cue + Log & MP3 CBR 320Kbps
Ten Years After, TYACD004 | ~ 405 or 130 Mb | Scans(png, 300dpi)
Blues Rock / British Blues / Rock & Roll / Jazz Rock

I'll refrain from going through the playlist track by track. The unfortunate truth is that some Alvin Lee disciples will never accept anything called TYA that doesn't include Lee. Alvin Lee is great. I own all the old TYA. Lee's album ON THE ROAD TO FREEDOM is one of my all-time faves. However, only a prejudiced music nazi would dismiss this album. The songs, playing, and singing are all primo. If you are in any way a fan of guitar-based blues rock, pick up a copy of this or download it ASAP. If you listen with open ears and an open mind you will not be disappointed.

By Geezerguy, amazon
Tracklist:

01. Think Its Gonna Rain - 4:28
02. She Keeps Walking - 5:54
03. Falling - 6:30
04. Needed A Rock - 4:32
05. Imagination - 5:14
06. Never Saw It Coming - 6:09
07. Slip Slide - 4:36
08. Tail Lights - 4:35
09. Angry Words - 8:25
10. That's Alright - 5:03

Exact Audio Copy V1.0 beta 3 from 29. August 2011

EAC extraction logfile from 10. November 2012, 7:56

Ten Years After / Evolution

Used drive : Optiarc DVD RW AD-5200S Adapter: 2 ID: 0

Read mode : Secure
Utilize accurate stream : Yes
Defeat audio cache : Yes
Make use of C2 pointers : No

Read offset correction : 48
Overread into Lead-In and Lead-Out : No
Fill up missing offset samples with silence : Yes
Delete leading and trailing silent blocks : No
Null samples used in CRC calculations : Yes
Used interface : Native Win32 interface for Win NT & 2000

Used output format : User Defined Encoder
Selected bitrate : 1024 kBit/s
Quality : High
Add ID3 tag : No
Command line compressor : C:\Program Files (x86)\Exact Audio Copy\FLAC\FLAC.EXE
Additional command line options : -8 -V -T "ARTIST=%artist%" -T "TITLE=%title%" -T "ALBUM=%albumtitle%" -T "DATE=%year%" -T "TRACKNUMBER=%tracknr%" -T "GENRE=%genre%" -T "PERFORMER=%albuminterpret%" -T "COMPOSER=%composer%" %haslyrics%–tag-from-file=LYRICS="%lyricsfile%"%haslyrics% -T "ALBUMARTIST=%albumartist%" -T "DISCNUMBER=%cdnumber%" -T "TOTALDISCS=%totalcds%" -T "TOTALTRACKS=%numtracks%" -T "COMMENT=%comment%" %source% -o %dest%


TOC of the extracted CD

Track | Start | Length | Start sector | End sector
––––––––––––––––––––––––––––-
1 | 0:00.00 | 4:27.50 | 0 | 20074
2 | 4:27.50 | 5:53.62 | 20075 | 46611
3 | 10:21.37 | 6:29.55 | 46612 | 75841
4 | 16:51.17 | 4:31.70 | 75842 | 96236
5 | 21:23.12 | 5:14.05 | 96237 | 119791
6 | 26:37.17 | 6:09.16 | 119792 | 147482
7 | 32:46.33 | 4:36.09 | 147483 | 168191
8 | 37:22.42 | 4:35.04 | 168192 | 188820
9 | 41:57.46 | 8:24.69 | 188821 | 226689
10 | 50:22.40 | 5:02.57 | 226690 | 249396


Range status and errors

Selected range

Filename G:\CD\Ten Years After - Evolution.wav

Peak level 100.0 %
Extraction speed 3.9 X
Range quality 99.9 %
Test CRC 5072F90A
Copy CRC 5072F90A
Copy OK

No errors occurred


AccurateRip summary

Track 1 accurately ripped (confidence 10) [ADC40284] (AR v1)
Track 2 accurately ripped (confidence 10) [44713551] (AR v1)
Track 3 accurately ripped (confidence 10) [74DD8E24] (AR v1)
Track 4 accurately ripped (confidence 10) [64ACAB09] (AR v1)
Track 5 accurately ripped (confidence 10) [AA5ADB3E] (AR v1)
Track 6 accurately ripped (confidence 10) [B82589E6] (AR v1)
Track 7 accurately ripped (confidence 10) [AD0B5FAE] (AR v1)
Track 8 accurately ripped (confidence 10) [9E6D5BEC] (AR v1)
Track 9 accurately ripped (confidence 9) [62BED4B1] (AR v1)
Track 10 accurately ripped (confidence 9) [4657DFD1] (AR v1)

All tracks accurately ripped

End of status report

foobar2000 1.1.18 / Dynamic Range Meter 1.1.1
log date: 2013-03-11 14:00:05

––––––––––––––––––––––––––––––––––––––––
Analyzed: Ten Years After / Evolution (2008, TYACD004)
––––––––––––––––––––––––––––––––––––––––

DR Peak RMS Duration Track
––––––––––––––––––––––––––––––––––––––––
DR8 0.00 dB -8.83 dB 4:28 01-Think Its Gonna Rain
DR7 0.00 dB -8.34 dB 5:54 02-She Keeps Walking
DR7 -0.10 dB -7.97 dB 6:30 03-Falling
DR7 0.00 dB -8.55 dB 4:32 04-Needed A Rock
DR8 0.00 dB -8.96 dB 5:14 05-Imagination
DR8 -0.20 dB -9.84 dB 6:09 06-Never Saw It Coming
DR7 -0.10 dB -8.25 dB 4:36 07-Slip Slide
DR9 -0.20 dB -9.97 dB 4:35 08-Tail Lights
DR8 0.00 dB -10.51 dB 8:25 09-Angry Words
DR7 -0.10 dB -8.44 dB 5:03 10-That's Alright
––––––––––––––––––––––––––––––––––––––––

Number of tracks: 10
Official DR value: DR8

Samplerate: 44100 Hz
Channels: 2
Bits per sample: 16
Bitrate: 992 kbps
Codec: FLAC

All thanks go to gerrV

Download Ten Years After Discography (1967-2008):