Ten Years After - Rock & Roll Music To The World (1972)

Posted By: v3122
Ten Years After - Rock & Roll Music To The World (1972)

Ten Years After - Rock & Roll Music To The World (1972)
EAC | Flac(Image) + Cue + Log & MP3 CBR 320Kbps
2014 | Warner/Chrysalis, 2897928530-5 | ~ 304 or 107 Mb | Scans(jpg) -> 9 Mb
Classic Rock / Blues Rock

Here, Ten Years After expanded on their boogie base and continued the hits. The title cut was the hit, and while they continued to groove along in the boogie atmosphere, things on Rock & Roll Music to the World sounded a bit too tame for the thundering hordes to chant along to at the time. "Turned Off T.V. Blues" showed just how tiring touring was getting for the band, and there wasn't much else here to bring out the beast to party with. A little too much of the same thing was starting to stunt this band's growth, except in their wallets.

by James Chrispell, allmusic
Ten Years After - Rock & Roll Music To The World (1972)


Ten Years After - Rock & Roll Music To The World (1972):

Ten Years After - Rock & Roll Music To The World (1972)

Tracklist:

01. You Give Me Loving - 6:32
02. Convention Prevention - 4:23
03. Turned Off TV Blues - 5:12
04. Standing At The Station - 7:08
05. You Can't Win Them All - 4:06
06. Religion - 5:50
07. Choo Choo Mama - 4:01
08. Tomorrow I'll Be Out Of Town - 4:28
09. Rock 'N' Roll Music To The World - 3:48

Exact Audio Copy V1.0 beta 3 from 29. August 2011

EAC extraction logfile from 5. December 2014, 21:37

Ten Years After / Rock & Roll Music To The World (2014, 2897928530-5)

Used drive : ATAPI iHAS124 B Adapter: 1 ID: 0

Read mode : Secure
Utilize accurate stream : Yes
Defeat audio cache : Yes
Make use of C2 pointers : No

Read offset correction : 6
Overread into Lead-In and Lead-Out : No
Fill up missing offset samples with silence : Yes
Delete leading and trailing silent blocks : No
Null samples used in CRC calculations : Yes
Used interface : Installed external ASPI interface

Used output format : User Defined Encoder
Selected bitrate : 128 kBit/s
Quality : High
Add ID3 tag : Yes
Command line compressor : C:\Program Files (x86)\Exact Audio Copy\Flac\flac.exe
Additional command line options : -V -8 -T "Date=%year%" -T "Genre=%genre%" %source%


TOC of the extracted CD

Track | Start | Length | Start sector | End sector
––––––––––––––––––––––––––––-
1 | 0:00.00 | 6:31.50 | 0 | 29374
2 | 6:31.50 | 4:22.56 | 29375 | 49080
3 | 10:54.31 | 5:12.36 | 49081 | 72516
4 | 16:06.67 | 7:08.00 | 72517 | 104616
5 | 23:14.67 | 4:05.71 | 104617 | 123062
6 | 27:20.63 | 5:50.18 | 123063 | 149330
7 | 33:11.06 | 4:01.36 | 149331 | 167441
8 | 37:12.42 | 4:28.13 | 167442 | 187554
9 | 41:40.55 | 3:47.67 | 187555 | 204646


Range status and errors

Selected range

Filename G:\CD\1\Ten Years After - Rock & Roll Music To The World.wav

Peak level 99.1 %
Extraction speed 2.9 X
Range quality 100.0 %
Test CRC E597DB5A
Copy CRC E597DB5A
Copy OK

No errors occurred


AccurateRip summary

Track 1 accurately ripped (confidence 9) [994E0A18] (AR v2)
Track 2 accurately ripped (confidence 9) [FFA9DA43] (AR v2)
Track 3 accurately ripped (confidence 9) [EDEB4ADC] (AR v2)
Track 4 accurately ripped (confidence 9) [D33AA385] (AR v2)
Track 5 accurately ripped (confidence 9) [5AF8C6E3] (AR v2)
Track 6 accurately ripped (confidence 9) [FB64CEA5] (AR v2)
Track 7 accurately ripped (confidence 9) [73036861] (AR v2)
Track 8 accurately ripped (confidence 9) [0081D0F6] (AR v2)
Track 9 accurately ripped (confidence 9) [EB7746F6] (AR v2)

All tracks accurately ripped

End of status report

–– CUETools DB Plugin V2.1.3

[CTDB TOCID: IFour0uqJW2eCdXzFlelZq4gTiY-] found, Submit result: already submitted
[1d90dc82] (16/16) Accurately ripped


==== Log checksum 5B124D89BEC6A80F59A4A84137CC58F3827C45DFA4FF08540C8670A606E81667 ====

foobar2000 1.2.9 / Dynamic Range Meter 1.1.1
log date: 2017-04-19 00:19:49

––––––––––––––––––––––––––––––––––––––––
Analyzed: Ten Years After / Rock & Roll Music To The World (2014, 2897928530-5)
––––––––––––––––––––––––––––––––––––––––

DR Peak RMS Duration Track
––––––––––––––––––––––––––––––––––––––––
DR9 -0.07 dB -11.73 dB 6:32 01-You Give Me Loving
DR10 -0.10 dB -11.40 dB 4:23 02-Convention Prevention
DR9 -0.09 dB -11.52 dB 5:12 03-Turned Off TV Blues
DR8 -0.07 dB -11.05 dB 7:08 04-Standing At The Station
DR10 -0.07 dB -11.60 dB 4:06 05-You Can't Win Them All
DR9 -0.08 dB -11.01 dB 5:50 06-Religion
DR9 -0.10 dB -10.82 dB 4:01 07-Choo Choo Mama
DR9 -0.07 dB -10.26 dB 4:28 08-Tomorrow I'll Be Out Of Town
DR9 -0.07 dB -10.88 dB 3:48 09-Rock 'N' Roll Music To The World
––––––––––––––––––––––––––––––––––––––––

Number of tracks: 9
Official DR value: DR9

Samplerate: 44100 Hz
Channels: 2
Bits per sample: 16
Bitrate: 908 kbps
Codec: FLAC

[CUETools log; Date: 19.04.2017 0:12:15; Version: 2.1.4]
[CTDB TOCID: IFour0uqJW2eCdXzFlelZq4gTiY-] found.
Track | CTDB Status
1 | (81/81) Accurately ripped
2 | (81/81) Accurately ripped
3 | (81/81) Accurately ripped
4 | (81/81) Accurately ripped
5 | (81/81) Accurately ripped
6 | (81/81) Accurately ripped
7 | (81/81) Accurately ripped
8 | (81/81) Accurately ripped
9 | (81/81) Accurately ripped
[AccurateRip ID: 0010988c-007830eb-830aa809] found.
Track [ CRC | V2 ] Status
01 [ff83112c|994e0a18] (00+51/51) Accurately ripped
02 [2f0ff16a|ffa9da43] (00+51/51) Accurately ripped
03 [a8619b45|edeb4adc] (00+51/51) Accurately ripped
04 [b1542662|d33aa385] (00+51/51) Accurately ripped
05 [9a00111f|5af8c6e3] (00+51/51) Accurately ripped
06 [e75b6bef|fb64cea5] (02+51/53) Accurately ripped
07 [cb4d6863|73036861] (00+51/51) Accurately ripped
08 [beaa8b8b|0081d0f6] (00+51/51) Accurately ripped
09 [43af1c89|eb7746f6] (00+51/51) Accurately ripped

Track Peak [ CRC32 ] [W/O NULL] [ LOG ]
– 99,1 [E597DB5A] [FCFBFAEB] CRC32
01 99,1 [07D59A01] [DCA07F52]
02 98,8 [553DD6D8] [86040B8E]
03 99,0 [6DF2B031] [23CCB55A]
04 99,1 [CE264C38] [99707C82]
05 99,1 [E0D480E8] [07EF15EF]
06 99,1 [946C73DB] [FA95B4B5]
07 98,8 [5C5B6D87] [EEFEAF7A]
08 99,1 [17B97B88] [44542D2C]
09 99,1 [B5145EAA] [EA2E58BC]

Ten Years After - Rock & Roll Music To The World (1972)

All thanks go to gerrV

Ten Years After in my Blog

Download Ten Years After - Rock & Roll Music To The World (1972):