Subcategories

Testament: Discography (1987-2016) [Vinyl Rip 16/44 & mp3-320]

Posted By: v3122
Testament: Discography (1987-2016) [Vinyl Rip 16/44 & mp3-320]

Testament: Discography (1987-2016)
12 x Vinyl Rip 16/44 | Flac(Image + Cue) > 4036 Mb
MP3 CBR 320Kbps > 1445 Mb | Artwork(jpg) > 1774 Mb
Atlantic, Prosthetic Records, Nuclear Blast
Thrash / Speed Metal

Testament is an American thrash metal band from Berkeley, California. Formed in 1983 under the name Legacy, the band's current lineup comprises guitarists Eric Peterson and Alex Skolnick, lead vocalist Chuck Billy, drummer Gene Hoglan, and bassist Steve Di Giorgio. In the 34 years since its inception, Testament has had numerous lineup changes, and Peterson has been the only constant member. Billy replaced original singer Steve "Zetro" Souza (who left the band to join Exodus as the replacement of Paul Baloff) in 1986, prior to the recording of their first studio album, The Legacy, and has been a member of the band since. Peterson and Billy are the only band members to appear on every album.

Testament is often credited as one of the most popular and influential bands of the thrash metal scene, having sold over 1.4 million albums in the United States since the beginning of the SoundScan era and over 4 million copies worldwide. They are also often credited as one of the leaders of the second wave of thrash metal in the late 1980s, along with bands such as Sacred Reich, Death Angel, Destruction and Dark Angel. To date, the band has released eleven studio albums, four live albums, six compilation albums, and six singles. After signing to Atlantic Records and changing their name from Legacy to Testament in 1986, they released their debut album The Legacy in 1987, and broke into the U.S. mainstream with its follow-up album The New Order (1988). Their next four studio albums—Practice What You Preach (1989), Souls of Black (1990), The Ritual (1992) and Low (1994)—were also successful, with the former of the three entering the Top 100 on the Billboard 200 chart. Over the course of their career, Testament has experienced several resurgences of popularity (with their 2012 album Dark Roots of Earth and 2016 follow-up Brotherhood of the Snake entering the Top 20 on the Billboard 200 chart) and has toured consistently…

~ wiki
Testament: Discography (1987-2016) [Vinyl Rip 16/44 & mp3-320]


Testament: Discography (1987-2016):

Testament: Discography (1987-2016) [Vinyl Rip 16/44 & mp3-320]

Tracklist VNL01 - The Legacy [781 741-1]:

01. Over The Wall
02. The Haunting
03. Burnt Offerings
04. Raging Waters
05. C.O.T.L.O.D.
06. First Strike Is Deadly
07. Do Or Die
08. Alone In The Dark
09. Apocalyptic City

foobar2000 1.2.9 / Dynamic Range Meter 1.1.1
log date: 2017-11-28 19:13:25

––––––––––––––––––––––––––––––––––––––––
Analyzed: Testament / The Legacy
––––––––––––––––––––––––––––––––––––––––

DR Peak RMS Duration Track
––––––––––––––––––––––––––––––––––––––––
DR11 -0.09 dB -12.80 dB 4:07 01-Over The Wall
DR11 -0.39 dB -12.95 dB 4:17 02-The Haunting
DR11 -0.41 dB -12.87 dB 5:07 03-Burnt Offerings
DR10 -0.22 dB -11.74 dB 4:33 04-Raging Waters
DR11 0.00 dB -12.58 dB 2:32 05-C.O.T.L.O.D.
DR11 0.00 dB -12.24 dB 3:43 06-First Strike Is Deadly
DR11 0.00 dB -12.12 dB 4:39 07-Do Or Die
DR12 -0.06 dB -13.11 dB 4:05 08-Alone In The Dark
DR11 0.00 dB -12.75 dB 5:55 09-Apocalyptic City
––––––––––––––––––––––––––––––––––––––––

Number of tracks: 9
Official DR value: DR11

Samplerate: 44100 Hz
Channels: 2
Bits per sample: 16
Bitrate: 1007 kbps
Codec: FLAC
================================================================================



Testament: Discography (1987-2016) [Vinyl Rip 16/44 & mp3-320]

Tracklist VNL02 - The New Order [781 849-1]:

01. Eerie Inhabitants
02. The New Order
03. Trial By Fire
04. Into The Pit
05. Hypnosis
06. Disciples Of The Watch
07. The Preacher
08. A Day Of Reckoning
09. Musical Death (A Dirge)

foobar2000 1.2.9 / Dynamic Range Meter 1.1.1
log date: 2017-11-28 19:13:39

––––––––––––––––––––––––––––––––––––––––
Analyzed: Testament / The New Order
––––––––––––––––––––––––––––––––––––––––

DR Peak RMS Duration Track
––––––––––––––––––––––––––––––––––––––––
DR11 -0.55 dB -13.66 dB 5:06 01-Eerie Inhabitants
DR11 -0.14 dB -12.69 dB 4:27 02-The New Order
DR11 -0.14 dB -13.41 dB 4:15 03-Trial By Fire
DR10 -0.16 dB -12.40 dB 2:46 04-Into The Pit
DR11 -3.32 dB -17.10 dB 2:05 05-Hypnosis
DR11 -0.15 dB -12.70 dB 5:06 06-Disciples Of The Watch
DR11 -0.01 dB -12.66 dB 3:39 07-The Preacher
DR11 -0.17 dB -12.58 dB 4:01 08-A Day Of Reckoning
DR12 -0.18 dB -16.76 dB 4:05 09-Musical Death (A Dirge)
––––––––––––––––––––––––––––––––––––––––

Number of tracks: 9
Official DR value: DR11

Samplerate: 44100 Hz
Channels: 2
Bits per sample: 16
Bitrate: 909 kbps
Codec: FLAC
================================================================================



Testament: Discography (1987-2016) [Vinyl Rip 16/44 & mp3-320]

Tracklist VNL03 - Practice What You Preach [782 009-1]:

01. Practice What You Preach
02. Perilous Nation
03. Envy Life
04. Time Is Coming
05. Blessed In Contempt
06. Greenhouse Effect
07. Sins Of Omission
08. The Ballad
09. Nightmare (Coming Back To You)
10. Confusion Fusion (Instrumental)

foobar2000 1.2.9 / Dynamic Range Meter 1.1.1
log date: 2017-11-28 19:14:08

––––––––––––––––––––––––––––––––––––––––
Analyzed: Testament / Practice What You Preach
––––––––––––––––––––––––––––––––––––––––

DR Peak RMS Duration Track
––––––––––––––––––––––––––––––––––––––––
DR14 0.00 dB -14.94 dB 4:55 01-Practice What You Preach
DR12 0.00 dB -14.48 dB 5:51 02-Perilous Nation
DR12 0.00 dB -14.71 dB 4:17 03-Envy Life
DR13 0.00 dB -14.27 dB 5:27 04-Time Is Coming
DR13 -0.05 dB -14.12 dB 4:13 05-Blessed In Contempt
DR13 0.00 dB -14.67 dB 4:54 06-Greenhouse Effect
DR13 -0.18 dB -14.31 dB 5:01 07-Sins Of Omission
DR12 0.00 dB -16.10 dB 6:09 08-The Ballad
DR12 -0.15 dB -13.15 dB 2:20 09-Nightmare (Coming Back To You)
DR12 -0.32 dB -14.57 dB 3:12 10-Confusion Fusion
––––––––––––––––––––––––––––––––––––––––

Number of tracks: 10
Official DR value: DR13

Samplerate: 44100 Hz
Channels: 2
Bits per sample: 16
Bitrate: 1018 kbps
Codec: FLAC
================================================================================



Testament: Discography (1987-2016) [Vinyl Rip 16/44 & mp3-320]

Tracklist VNL04 - Souls of Black [7567-82143-1]:

01. Beginning Of The End
02. Face In The Sky
03. Falling Fast
04. Souls Of Black
05. Absence Of Light
06. Love To Hate
07. Malpractice
08. One Man's Fate
09. The Legacy
10. Seven Days Of May

foobar2000 1.2.9 / Dynamic Range Meter 1.1.1
log date: 2017-11-28 19:14:26

––––––––––––––––––––––––––––––––––––––––
Analyzed: Testament / Souls of Black
––––––––––––––––––––––––––––––––––––––––

DR Peak RMS Duration Track
––––––––––––––––––––––––––––––––––––––––
DR11 -4.34 dB -21.40 dB 0:35 01-Beginning of the End
DR11 -0.27 dB -13.24 dB 3:54 02-Face in the Sky
DR11 0.00 dB -12.62 dB 4:05 03-Falling Fast
DR12 -0.46 dB -13.79 dB 3:23 04-Souls of Black
DR11 -0.02 dB -12.89 dB 3:55 05-Absence of Light
DR11 -0.19 dB -12.82 dB 3:41 06-Love to Hate
DR11 -0.65 dB -13.11 dB 4:43 07-Malpractice
DR11 -0.11 dB -12.76 dB 4:49 08-One Man's Fate
DR11 -0.13 dB -14.60 dB 5:31 09-The Legacy
DR12 -0.11 dB -13.20 dB 4:44 10-Seven Days of May
––––––––––––––––––––––––––––––––––––––––

Number of tracks: 10
Official DR value: DR11

Samplerate: 44100 Hz
Channels: 2
Bits per sample: 16
Bitrate: 996 kbps
Codec: FLAC
================================================================================



Testament: Discography (1987-2016) [Vinyl Rip 16/44 & mp3-320]

Tracklist VNL05 - The Ritual [7567-82392-1]:

01. Signs Of Chaos
02. Electric Crown
03. So Many Lies
04. Let Go Of My World
05. The Ritual
06. Deadline
07. As The Seasons Grey
08. Agony
09. The Sermon
10. Return To Serenity
11. Troubled Dreams

foobar2000 1.2.9 / Dynamic Range Meter 1.1.1
log date: 2017-11-28 19:14:46

––––––––––––––––––––––––––––––––––––––––
Analyzed: Testament / The Ritual
––––––––––––––––––––––––––––––––––––––––

DR Peak RMS Duration Track
––––––––––––––––––––––––––––––––––––––––
DR9 -6.59 dB -20.44 dB 0:30 01-Signs Of Chaos
DR12 0.00 dB -13.38 dB 5:30 02-Electric Crown
DR12 0.00 dB -13.58 dB 6:04 03-So Many Lies
DR12 0.00 dB -13.10 dB 3:47 04-Let Go Of My World
DR12 0.00 dB -13.95 dB 7:28 05-The Ritual
DR11 0.00 dB -12.51 dB 4:47 06-Deadline
DR12 0.00 dB -13.25 dB 6:13 07-As The Seasons Grey
DR11 -0.24 dB -12.69 dB 4:01 08-Agony
DR12 0.00 dB -12.88 dB 4:41 09-The Sermon
DR12 -0.02 dB -14.95 dB 6:31 10-Return To Serenity
DR12 -0.04 dB -13.28 dB 5:04 11-Troubled Dreams
––––––––––––––––––––––––––––––––––––––––

Number of tracks: 11
Official DR value: DR11

Samplerate: 44100 Hz
Channels: 2
Bits per sample: 16
Bitrate: 983 kbps
Codec: FLAC
================================================================================



Testament: Discography (1987-2016) [Vinyl Rip 16/44 & mp3-320]

Tracklist VNL06 - Low [7567-82645-1]:

01. Low
02. Legions (In Hiding)
03. Hail Mary
04. Trail Of Tears
05. Shades Of War
06. P.C.
07. Dog Faced Gods
08. All I Could Bleed
09. Urotsukidoji
10. Chasing Fear
11. Ride
12. Last Call

foobar2000 1.2.9 / Dynamic Range Meter 1.1.1
log date: 2017-11-28 19:15:03

––––––––––––––––––––––––––––––––––––––––
Analyzed: Testament / Low
––––––––––––––––––––––––––––––––––––––––

DR Peak RMS Duration Track
––––––––––––––––––––––––––––––––––––––––
DR11 -0.36 dB -13.42 dB 3:35 01-Low
DR12 -0.81 dB -13.86 dB 4:18 02-Legions (In Hiding)
DR11 -0.31 dB -13.77 dB 3:34 03-Hail Mary
DR12 -1.80 dB -16.46 dB 6:08 04-Trail Of Tears
DR11 -0.04 dB -13.22 dB 4:44 05-Shades Of War
DR11 0.00 dB -13.92 dB 2:54 06-P.C.
DR11 -0.21 dB -12.97 dB 4:03 07-Dog Faced Gods
DR12 -0.21 dB -14.07 dB 3:38 08-All I Could Bleed
DR12 0.00 dB -13.74 dB 3:41 09-Urotsukidoji
DR12 0.00 dB -13.97 dB 4:57 10-Chasing Fear
DR10 -0.72 dB -13.28 dB 3:17 11-Ride
DR14 -5.62 dB -21.16 dB 2:43 12-Last Call
––––––––––––––––––––––––––––––––––––––––

Number of tracks: 12
Official DR value: DR12

Samplerate: 44100 Hz
Channels: 2
Bits per sample: 16
Bitrate: 938 kbps
Codec: FLAC
================================================================================



Testament: Discography (1987-2016) [Vinyl Rip 16/44 & mp3-320]

Tracklist VNL07 - Demonic [656191005210]:

01. Demonic Refusal
02. The Burning Times
03. Together As One
04. Jun-Jun
05. John Doe
06. Murky Waters
07. Hatred Rise
08. Distorted Lives
09. New Eyes Of Old
10. Ten Thousand Thrones
11. Nostrovia

foobar2000 1.2.9 / Dynamic Range Meter 1.1.1
log date: 2017-11-28 19:15:21

––––––––––––––––––––––––––––––––––––––––
Analyzed: Testament / Demonic
––––––––––––––––––––––––––––––––––––––––

DR Peak RMS Duration Track
––––––––––––––––––––––––––––––––––––––––
DR12 -0.31 dB -13.72 dB 5:24 01-Demonic Refusal
DR12 -1.12 dB -14.08 dB 5:17 02-The Burning Times
DR11 -1.04 dB -13.10 dB 4:17 03-Together As One
DR11 -0.87 dB -13.66 dB 3:45 04-Jun-Jun
DR11 -0.97 dB -13.80 dB 3:13 05-John Doe
DR12 -0.72 dB -13.69 dB 3:02 06-Murky Waters
DR11 -0.14 dB -13.23 dB 3:17 07-Hatred's Rise
DR11 -0.87 dB -12.70 dB 3:38 08-Distorted Lives
DR11 0.00 dB -13.33 dB 3:02 09-New Eyes of Old
DR12 -1.11 dB -14.60 dB 4:38 10-Ten Thousand Thrones
DR10 -1.50 dB -13.57 dB 1:33 11-Nostrovia
––––––––––––––––––––––––––––––––––––––––

Number of tracks: 11
Official DR value: DR11

Samplerate: 44100 Hz
Channels: 2
Bits per sample: 16
Bitrate: 983 kbps
Codec: FLAC
================================================================================



Testament: Discography (1987-2016) [Vinyl Rip 16/44 & mp3-320]

Tracklist VNL08 - The Gathering [VC009]:

01. D.N.R. (Do Not Resuscitate)
02. Down For Life
03. Eyes Of Wrath
04. True Believer
05. 3 Days In Darkness
06. Legions Of The Dead
07. Careful What You Wish For
08. Riding The Snake
09. Allegiance
10. Sewn Shut Eyes
11. Fall Of Sipledome

foobar2000 1.2.9 / Dynamic Range Meter 1.1.1
log date: 2017-11-28 19:15:40

––––––––––––––––––––––––––––––––––––––––
Analyzed: Testament / The Gathering
––––––––––––––––––––––––––––––––––––––––

DR Peak RMS Duration Track
––––––––––––––––––––––––––––––––––––––––
DR11 -0.50 dB -13.53 dB 3:34 01-D.N.R. (Do Not Resuscitate)
DR11 -0.77 dB -13.29 dB 3:24 02-Down for Life
DR11 -0.39 dB -13.71 dB 5:25 03-Eyes of Wrath
DR11 -0.84 dB -13.34 dB 3:36 04-True Believer
DR11 -0.39 dB -12.80 dB 4:43 05-3 Days in Darkness
DR11 -0.06 dB -12.13 dB 2:39 06-Legions of the Dead
DR11 -0.09 dB -12.87 dB 3:31 07-Careful What You Wish For
DR12 -0.16 dB -13.53 dB 4:13 08-Riding the Snake
DR11 0.00 dB -12.02 dB 2:38 09-Allegiance
DR11 0.00 dB -12.77 dB 4:16 10-Sewn Shut Eyes
DR11 0.00 dB -12.94 dB 4:52 11-Fall of Sipledome
––––––––––––––––––––––––––––––––––––––––

Number of tracks: 11
Official DR value: DR11

Samplerate: 44100 Hz
Channels: 2
Bits per sample: 16
Bitrate: 991 kbps
Codec: FLAC
================================================================================



Testament: Discography (1987-2016) [Vinyl Rip 16/44 & mp3-320]

Tracklist VNL09 - First Strike Still Deadly:

01. First Strike Is Deadly
02. Into The Pit
03. Trial By Fire
04. Disciples Of The Watch
05. The Preacher
06. Burnt Offerings
07. Over The Wall
08. The New Order
09. The Haunting
10. Alone In The Dark
11. Reign Of Terror

foobar2000 1.2.9 / Dynamic Range Meter 1.1.1
log date: 2017-11-28 19:16:04

––––––––––––––––––––––––––––––––––––––––
Analyzed: Testament / First Strike Still Deadly
––––––––––––––––––––––––––––––––––––––––

DR Peak RMS Duration Track
––––––––––––––––––––––––––––––––––––––––
DR12 -0.33 dB -14.21 dB 3:59 01-First Strike Is Deadly
DR11 -0.43 dB -13.28 dB 2:55 02-Into The Pit
DR12 -0.23 dB -14.12 dB 4:32 03-Trial By Fire
DR12 0.00 dB -13.51 dB 4:34 04-Disciples Of The Watch
DR12 -0.45 dB -13.72 dB 3:56 05-The Preacher
DR12 -0.55 dB -13.92 dB 5:28 06-Burnt Offerings
DR12 0.00 dB -14.03 dB 4:18 07-Over The Wall
DR12 0.00 dB -14.06 dB 4:43 08-The New Order
DR13 -0.68 dB -14.80 dB 4:37 09-The Haunting
DR12 -1.04 dB -14.32 dB 4:40 10-Alone In The Dark
DR12 -0.10 dB -13.40 dB 5:07 11-Reign Of Terror
––––––––––––––––––––––––––––––––––––––––

Number of tracks: 11
Official DR value: DR12

Samplerate: 44100 Hz
Channels: 2
Bits per sample: 16
Bitrate: 975 kbps
Codec: FLAC
================================================================================



Testament: Discography (1987-2016) [Vinyl Rip 16/44 & mp3-320]

Tracklist VNL10 - The Formation of Damnation [NB 2005-1]:

01. For The Glory Of…
02. More Than Meets The Eye
03. The Evil Has Landed
04. The Formation Of Damnation
05. Dangers Of The Faithless
06. The Persecuted Won't Forget
07. Henchmen Ride
08. Killing Season
09. Afterlife
10. F.E.A.R.
11. Leave Me Forever

foobar2000 1.2.9 / Dynamic Range Meter 1.1.1
log date: 2017-11-28 19:16:22

––––––––––––––––––––––––––––––––––––––––
Analyzed: Testament / The Formation Of Damnation
––––––––––––––––––––––––––––––––––––––––

DR Peak RMS Duration Track
––––––––––––––––––––––––––––––––––––––––
DR11 -0.26 dB -13.36 dB 1:13 01-For The Glory Of…
DR12 -0.54 dB -12.98 dB 4:33 02-More Than Meets The Eye
DR12 -0.02 dB -13.20 dB 4:43 03-The Evil Has Landed
DR11 -1.45 dB -13.37 dB 5:09 04-The Formation Of Damnation
DR12 -0.92 dB -14.20 dB 5:47 05-Dangers Of The Faithless
DR12 0.00 dB -13.66 dB 5:46 06-The Persecuted Won't Forget
DR11 -0.25 dB -13.03 dB 4:00 07-Henchmen Ride
DR11 -0.09 dB -12.97 dB 4:52 08-Killing Season
DR12 -0.37 dB -13.63 dB 4:13 09-Afterlife
DR12 -0.60 dB -13.02 dB 4:46 10-F.E.A.R.
DR12 -0.02 dB -14.34 dB 4:28 11-Leave Me Forever
––––––––––––––––––––––––––––––––––––––––

Number of tracks: 11
Official DR value: DR12

Samplerate: 44100 Hz
Channels: 2
Bits per sample: 16
Bitrate: 937 kbps
Codec: FLAC
================================================================================



Testament: Discography (1987-2016) [Vinyl Rip 16/44 & mp3-320]

Tracklist VNL11 - Dark Roots Of Earth [NB 2509-1]:

01. Rise Up
02. Native Blood
03. Dark Roots of Earth
04. True American Hate
05. A Day in the Death
06. Cold Embrace
07. Man Kills Mankind
08. Throne of Thorns
09. Last Stand for Independence
10. Dragon Attack
11. Animal Magnetism
12. Powerslave

foobar2000 1.2.9 / Dynamic Range Meter 1.1.1
log date: 2017-11-28 19:16:40

––––––––––––––––––––––––––––––––––––––––
Analyzed: Testament / Dark roots of Earth
––––––––––––––––––––––––––––––––––––––––

DR Peak RMS Duration Track
––––––––––––––––––––––––––––––––––––––––
DR11 0.00 dB -12.53 dB 4:18 01-Rise Up
DR12 -0.02 dB -13.18 dB 5:21 02-Native Blood
DR12 0.00 dB -13.19 dB 5:46 03-Dark roots of Earth
DR12 0.00 dB -12.76 dB 5:26 04-True American Hate
DR12 -0.32 dB -13.33 dB 5:38 05-A Day in the Death
DR12 -0.35 dB -14.50 dB 7:48 06-Cold Embrace
DR12 0.00 dB -12.83 dB 5:06 07-Man Kills Mankind
DR12 0.00 dB -14.03 dB 7:04 08-Throne of Thorns
DR12 0.00 dB -13.53 dB 4:40 09-Last Stand for Independence
DR12 -0.15 dB -13.77 dB 4:45 10-Dragon Attack
DR13 -0.03 dB -15.17 dB 5:56 11-Animal Magnetism
DR12 -0.35 dB -13.76 dB 6:52 12-Powerslave
––––––––––––––––––––––––––––––––––––––––

Number of tracks: 12
Official DR value: DR12

Samplerate: 44100 Hz
Channels: 2
Bits per sample: 16
Bitrate: 892 kbps
Codec: FLAC
================================================================================



Testament: Discography (1987-2016) [Vinyl Rip 16/44 & mp3-320]

Tracklist VNL12 - Brotherhood Of The Snake [NB 3327-1]:

01. Brotherhood Of The Snake
02. The Pale King
03. Black Jack
04. Born In A Rut
05. Centuries Of Suffering
06. Seven Seals
07. Neptune's Spear
08. Stronghold
09. The Number Game
10. Canna-Business

foobar2000 1.2.9 / Dynamic Range Meter 1.1.1
log date: 2017-11-28 19:16:57

––––––––––––––––––––––––––––––––––––––––
Analyzed: Testament / Brotherhood Of The Snake
––––––––––––––––––––––––––––––––––––––––

DR Peak RMS Duration Track
––––––––––––––––––––––––––––––––––––––––
DR11 0.00 dB -13.18 dB 4:16 01-Brotherhood Of The Snake
DR12 -0.28 dB -13.43 dB 4:50 02-The Pale King
DR12 -0.11 dB -13.00 dB 4:22 03-Black Jack
DR12 -0.45 dB -13.46 dB 4:58 04-Born In A Rut
DR11 -1.00 dB -13.44 dB 3:35 05-Centuries Of Suffering
DR11 -0.24 dB -13.26 dB 5:40 06-Seven Seals
DR12 -0.49 dB -14.40 dB 5:34 07-Neptune's Spear
DR12 -0.70 dB -13.63 dB 4:02 08-Stronghold
DR12 -0.22 dB -13.39 dB 4:42 09-The Number Game
DR11 -0.63 dB -14.17 dB 3:59 10-Canna-Business
––––––––––––––––––––––––––––––––––––––––

Number of tracks: 10
Official DR value: DR12

Samplerate: 44100 Hz
Channels: 2
Bits per sample: 16
Bitrate: 949 kbps
Codec: FLAC
================================================================================




Original ripper: Valeron
Original format: 24/192
Vinyl Condition: Near Mint / Mint
Cleaning:
Direct Drive Turntable: Dual 505-4, Pioneer PL-7L, AT-OC9/III, ZYX R100 Fuji X
Cartridge:
Amplifier: PS Audio GCPH Phono Stage + Tube Preamp (Telefunken)
ADC: Motu mk3, TASCAM HS-P82
Postprocessing:

Downsampled to 16/44

Rod Stewart: Collection (1969 - 1988) [Vinyl Rip 16/44 & mp3-320]
Kraftwerk: Collection (1974 - 1991) [Vinyl Rip 16/44 & mp3-320]
Roger Waters: Vinyl Collection (1970 - 1992) [Vinyl Rip 16/44 & mp3-320] [Vinyl Rip 16/44 & MP3-320]



Rare Earth: Collection (1969 - 1978) [Vinyl Rip 16/44 & mp3-320]
David Gilmour - Rattle That Lock (2015) [Vinyl Rip 16/44 & mp3-320]

Depeche Mode: Collection (1981 - 2013) [Vinyl Rip 16/44 & mp3-320]
Pink Floyd: Remastered Collection (1967 - 2016) [Vinyl Rip 16/44 & mp3-320]
Sade: Discography (1984 - 2010) [Vinyl Rip 16/44 & MP3-320]
Deep Purple: Collection (1968 - 2017) [Vinyl Rip 16/44 & mp3-320]
Queen: Collection (1973 - 1995) [Vinyl Rip 16/44 & MP3-320]
The Cars: Collection (1978 - 1987) [Vinyl Rip 16/44 & mp3-320]
Metallica: Discography (1983 - 2016) [Vinyl Rip 16/44 & mp3-320]
Bon Jovi - The Albums (2017) [Vinyl Rip 16/44 & mp3-320, Limited Edition Box set]
The Doors: Collection (1967 - 1971) [Vinyl Rip 16/44 & mp3-320]
Black Sabbath: Collection (1970 - 2013) [Vinyl Rip 16/44 & mp3-320]
The Beatles: Discography (1963 - 1988) [Vinyl Rip 16/44 & mp3-320]
Joe Cocker: Collection (1969 - 1991) [Vinyl Rip 16/44 & mp3-320]
Frank Zappa: Collection (1969 - 1981) [Vinyl Rip 16/44 & mp3-320]
Ten Years After: Collection (1967 - 1974) [Vinyl Rip 16/44 & mp3-320]
Dire Straits: Discography (1978 - 1991) [Vinyl Rip 16/44 & mp3-320]
Bonnie Tyler: Collection (1977 - 1986) [Vinyl Rip 16/44 & mp3-320]
The Beatles: Stereo Vinyl Box Set (2012) [Vinyl Rip 16/44 & mp3-320]
Wolfgang Amadeus Mozart - Die Violin Konzerte (1968) [Vinyl Rip 16/44 & mp3-320]
Eagles - The Studio Albums 1972-1979 (2013) [Vinyl Rip 16/44 & mp3-320]
Pink Floyd: Discography (1967 - 2014) [Vinyl Rip 16/44 & mp3-320]
Led Zeppelin: Discography (1969 - 1982) [Vinyl Rip 16/44 & mp3-320]
Manowar: Collection (1982 - 2012) [Vinyl Rip 16/44 & mp3-320]
A-HA: Collection (1985-2015) [Vinyl Rip 16/44 & mp3-320]
Decca, Wiener Philharmoniker - 6 Classic Analogue LPs (2014) [Vinyl Rip 16/44]
Beethoven - Chicago Symphony Orchestra / Sir Georg Solti ‎– The Nine Symphonies (1975) [Vinyl Rip 16/44 & mp3-320]
Scorpions: Collection (1974 - 2015) [Vinyl Rip 16/44 & mp3-320]
Pink Floyd - Echoes: The Best Of Pink Floyd (2001) [Vinyl Rip 16/44]
Alice Cooper - Paranormal (2017) [Vinyl Rip 16/44 & mp3-320]
Manfred Mann's Earth Band: Collection (1967 - 2014) [Vinyl Rip 16/44 & mp3-320]
Rainbow: Discography (1975 - 1986) [Vinyl Rip 16/44 & mp3-320]
Amanda Lear: Collection (1978 - 1986) [Vinyl Rip 16/44 & mp3-320]
Space & Didier Marouani: Collection (1977 - 1987) [Vinyl Rip 16/44 & mp3-320]

Testament or Testament in my Blog

Download Testament: Discography (1987-2016):