Subcategories

The 4 Levels Of Existence - The 4 Levels Of Existence (1976) [2019, Remastered, Vinyl Rip 16/44 & mp3-320 + DVD]

Posted By: v3122
The 4 Levels Of Existence - The 4 Levels Of Existence (1976) [2019, Remastered, Vinyl Rip 16/44 & mp3-320 + DVD]

The 4 Levels Of Existence - The 4 Levels Of Existence (1976)
Vinyl Rip 16/44 | Flac(Image + Cue) > 215 Mb
MP3 CBR 320Kbps > 85 Mb | Artwork(jpg) > 46 Mb
DVD-5: NTSC 4:3 (720x480) VBR | LPCM, 2 ch, 24 bit, 96 kHz > 1.26 Gb
Anazitisi Records, ARLP 70-4 | Hard-Psych-Prog Rock

~ Vinyl, LP, Album, Limited Edition to 500 copies: 350 black and 150 Purple transparent with blue haze, Reissue, Remastered ~

Greek psychedelic/hard rock group, active in the '70s. (name translates to: "The 4 Levels Of Existence").
They originally released only one self-titled album in 1976 on an underground label called "Venus". It was reissued in 1995 (Wipe Out! Records), in 2002 (Ίκαρος), and in 2009 (Anazitisi Records).
In 2009, Jay-Z used a sample from the band's "Κάποια μέρα στην Αθήνα" ("Someday in Athens") on his song "Run This Town" (featuring Rihanna & Kanye West). The song won 2 Grammy awards in 2010 (best song & best rap song) and Athanasios Alatas, who was the original composer, awarded as a co-writer.

Former member: Νίκος Δούναβης (Nikos Dounavis) - Guitar (1974-75).

~ discogs
The 4 Levels Of Existence - The 4 Levels Of Existence (1976):

The 4 Levels Of Existence - The 4 Levels Of Existence (1976) [2019, Remastered, Vinyl Rip 16/44 & mp3-320 + DVD]

Tracklist:

A1. Metamorphic
A2. When The Snow Melts
A3. The Village Postman
A4. Wilderness
A5. The Fool’s Trumpet
-
B1. Our Fight
B2. Disappointment
B3. Child’s Song
B4. Untitled
B5. Someday In Athens

foobar2000 1.4 / Dynamic Range Meter 1.1.1
log date: 2019-05-15 14:46:15

––––––––––––––––––––––––––––––––––––––––
Analyzed: The 4 Levels Of Existence / The 4 Levels Of Existence (LP)
––––––––––––––––––––––––––––––––––––––––

DR Peak RMS Duration Track
––––––––––––––––––––––––––––––––––––––––
DR10 -0.20 dB -11.89 dB 3:30 01-LADO 1- Metamorphic
DR10 -0.16 dB -11.85 dB 2:58 02-When The Snow Melts
DR10 -0.56 dB -12.94 dB 3:57 03-The Village Postman
DR11 -0.80 dB -13.75 dB 3:02 04-Wilderness
DR11 -0.90 dB -14.70 dB 3:54 05-The Fool's Trumpet
DR10 -0.12 dB -12.48 dB 3:35 06-LADO 2- Our Fight
DR11 -0.39 dB -12.52 dB 3:27 07-Disappointment
DR11 -0.12 dB -12.88 dB 4:31 08-Child's Song
DR11 -3.34 dB -17.29 dB 2:31 09-Untitled
DR10 -0.18 dB -12.54 dB 4:43 10-Someday In Athens
––––––––––––––––––––––––––––––––––––––––

Number of tracks: 10
Official DR value: DR11

Samplerate: 96000 Hz
Channels: 2
Bits per sample: 24
Bitrate: 2787 kbps
Codec: FLAC
================================================================================



Title: The 4 Levels Of Existence - DVD
Size: 1.20 Gb ( 1 256 108,00 KBytes ) - DVD-5
Enabled regions: 1, 2, 3, 4, 5, 6, 7, 8

VTS_01 :
Play Length: 00:36:04
Video: NTSC 4:3 (720x480) VBR
Audio:
Not specified (LinearPCM, 2 ch)



Original ripper: Fran Solo
Original format: 24/96
Vinyl Condition: Mint
Cleaning:
Direct Drive Turntable: Technics SL-1200MK2 Quartz
Cartridge: SHURE M97xE With JICO SAS Stylus
Amplifier: Marantz 2252
ADC: E-MU 0404
Postprocessing: DeClick: Only Manual (Click per click)

Downsampled to 16/44

The 4 Levels Of Existence - The 4 Levels Of Existence (1976) [2019, Remastered, Vinyl Rip 16/44 & mp3-320 + DVD]

The 4 Levels Of Existence - The 4 Levels Of Existence (1976) [2019, Remastered, Vinyl Rip 16/44 & mp3-320 + DVD]

Download The 4 Levels Of Existence - The 4 Levels Of Existence (1976):