Subcategories

The 69 Cats - Transylvanian Tapes (2014)

Posted By: popsakov
The 69 Cats - Transylvanian Tapes (2014)

The 69 Cats - Transylvanian Tapes (2014)
EAC Rip | FLAC (Img) + Cue + Log ~ 345 Mb | MP3 CBR320 ~ 125 Mb
Full Scans | RAR 5% Recovery
Rockabilly, Psychobilly | Cleopatra Records #CLP 1870

The debut album from gothabilly supergroup featuring 69 Eyes vocalist Jyrki rockin’ out with Head Cat six-string slinger Danny B. Harvey, former Cramps bassist Scott “Chopper” Franklin, and Blondie drummer Clem Burke! Includes a guest appearance by the queen of rockabilly herself, Wanda Jackson, on a stunning version of Elvis’s “She’s Not You” as well as other rock classics such as Del Shannon’s “Runaway” and Dwight Pullen’s “Sunglasses After Dark” plus Bauhaus’s “Bela Lugosi’s Dead” Duran Duran’s “Girls On Film” and lots more!

~ Cleopatra Records

The 69 Cats are an all-star psychobilly ensemble whose music honors the "billy" just as much as the "psycho." Blending elements of goth and hard rock along with the usual vintage rhythm and twang, the group is an all-star ensemble featuring members of the Cramps, the Rockats, the 69 Eyes, and Blondie. The group released their first full-length, The Transylvanian Tapes, in 2014, and were introduced to a new audience when one of their songs appeared on the TV series True Blood.

The group was formed by Jyrki69, the vocalist with the Finnish goth rock band the 69 Eyes; in addition to singing with his band, he does DJ sets, and noticed that spinning classic rockabilly at the end of a night of goth-themed music always filled the dancefloor. Hoping to put his two interests together, he formed the 69 Cats with Danny B. Harvey, the American rockabilly guitarist who played with the Rockats as well as backing up Wanda Jackson, Nancy Sinatra, and Lemmy Kilmister. Signing on to play bass was Chopper Franklin, a former member of the Cramps, and Clem Burke of Blondie and the Empty Hearts became the group's drummer.

~ Mark Deming, All Music

***************

The 69 Cats - Transylvanian Tapes (2014)

The 69 Cats - Transylvanian Tapes (2014)

Track List:

01. People Are Strange [02:59]
02. Sunclasses After Dark [02:43]
03. She's Not You (feat. Wynda Jackson) [02:46]
04. Runaway [02:30]
05. Sweet Transvestite (with The Devil's Daughters) [03:27]
06. Edge Of Reality [03:52]
07. Necromancer For Guitar [04:06]
08. You're My Baby [02:43]
09. Werewolves Of London [04:16]
10. Black Cadillac [03:05]
11. Girls On Film [04:00]
12. 69 Guitars [02:57]
13. Bela Lugosi's Dead [03:29]

Exact Audio Copy V1.0 beta 3 from 29. August 2011

EAC extraction logfile from 4. June 2015, 23:07

The 69 Cats / Transylvanian Tapes

Used drive : PIONEER BD-RW BDR-TD03 Adapter: 0 ID: 1

Read mode : Secure
Utilize accurate stream : Yes
Defeat audio cache : Yes
Make use of C2 pointers : No

Read offset correction : 667
Overread into Lead-In and Lead-Out : No
Fill up missing offset samples with silence : Yes
Delete leading and trailing silent blocks : No
Null samples used in CRC calculations : Yes
Used interface : Native Win32 interface for Win NT & 2000

Used output format : User Defined Encoder
Selected bitrate : 768 kBit/s
Quality : High
Add ID3 tag : No
Command line compressor : C:\Program Files (x86)\Exact Audio Copy\FLAC\FLAC.EXE
Additional command line options : -6 -V -T "ARTIST=%artist%" -T "TITLE=%title%" -T "ALBUM=%albumtitle%" -T "DATE=%year%" -T "TRACKNUMBER=%tracknr%" -T "GENRE=%genre%" -T "COMMENT=%comment%" -T "BAND=%albuminterpret%" -T "ALBUMARTIST=%albuminterpret%" -T "COMPOSER=%composer%" %haslyrics%–tag-from-file=LYRICS="%lyricsfile%"%haslyrics% -T "DISCNUMBER=%cdnumber%" -T "TOTALDISCS=%totalcds%" -T "TOTALTRACKS=%numtracks%" %hascover%–picture="%coverfile%"%hascover% %source% -o %dest%


TOC of the extracted CD

Track | Start | Length | Start sector | End sector
––––––––––––––––––––––––––––-
1 | 0:00.00 | 2:58.53 | 0 | 13402
2 | 2:58.53 | 2:42.51 | 13403 | 25603
3 | 5:41.29 | 2:45.74 | 25604 | 38052
4 | 8:27.28 | 2:29.66 | 38053 | 49293
5 | 10:57.19 | 3:26.74 | 49294 | 64817
6 | 14:24.18 | 3:51.40 | 64818 | 82182
7 | 18:15.58 | 4:05.35 | 82183 | 100592
8 | 22:21.18 | 2:42.41 | 100593 | 112783
9 | 25:03.59 | 4:15.07 | 112784 | 131915
10 | 29:18.66 | 3:04.40 | 131916 | 145755
11 | 32:23.31 | 3:59.41 | 145756 | 163721
12 | 36:22.72 | 2:56.03 | 163722 | 176924
13 | 39:19.00 | 3:28.07 | 176925 | 192531


Range status and errors

Selected range

Filename C:\Users\Deris\Desktop\69cats\The 69 Cats - Transylvanian Tapes.wav

Peak level 97.9 %
Extraction speed 4.4 X
Range quality 100.0 %
Test CRC 4DE5CC2E
Copy CRC 4DE5CC2E
Copy OK

No errors occurred


AccurateRip summary

Track 1 not present in database
Track 2 not present in database
Track 3 not present in database
Track 4 not present in database
Track 5 not present in database
Track 6 not present in database
Track 7 not present in database
Track 8 not present in database
Track 9 not present in database
Track 10 not present in database
Track 11 not present in database
Track 12 not present in database
Track 13 not present in database

None of the tracks are present in the AccurateRip database

End of status report

–– CUETools DB Plugin V2.1.3

[CTDB TOCID: POvIcUUpJw3z0cfL9hvaFMfJ9m4-] found, Submit result: POvIcUUpJw3z0cfL9hvaFMfJ9m4- has been confirmed
[57441f8e] (1/3) No match
[06d0289b] (2/3) Accurately ripped


==== Log checksum 6776BFF0BA0D6147F6D6DAFD05C9A2724E3D00BF97DCB901B46342ABCC7EEA8A ====

The 69 Cats - Transylvanian Tapes (2014)

All thanks go to Boris1

>>> My Blog <<<

Download from icerbox.com: