Subcategories
Tags
Language
Tags

The Alan Parsons Project - Pyramid (1978) {1987, Japanese Reissue} Re-Up

Posted By: popsakov
The Alan Parsons Project - Pyramid (1978) {1987, Japanese Reissue} Re-Up

The Alan Parsons Project - Pyramid (1978) {1987, Japanese Reissue}
EAC Rip | FLAC (Img) + Cue + Log ~ 223 Mb | MP3 CBR320 ~ 91 Mb
Full Scans ~ 77 Mb | 00:37:44 | RAR 5% Recovery
Progressive Rock, Art Rock | Arista Records / Nippon Phonogram #32RD-78

Pyramid is the third album by progressive rock band The Alan Parsons Project, released in 1978. It is a concept album centred on the pyramids of Giza. At the time the album was conceived, interest in pyramid power and Tutankhamun was widespread in the US and the UK. Pyramid was nominated for the 1978 Grammy Award for Best Engineered Album, Non-Classical.

***************

The Alan Parsons Project - Pyramid (1978) {1987, Japanese Reissue} Re-Up

The Alan Parsons Project - Pyramid (1978) {1987, Japanese Reissue} Re-Up

Track List:

01. Voyager [0:02:15.20]
02. What Goes Up… [0:03:57.07]
03. The Eagle Will Rise Again [0:04:04.30]
04. One More River [0:04:16.60]
05. Can't Take It With You [0:05:02.70]
06. In the Lap of the Gods [0:05:30.10]
07. Pyramania [0:02:43.00]
08. Hyper-Gamma-Spaces [0:04:20.13]
09. Shadow of a Lonely Man [0:05:34.50]

Personnel:
David Paton - bass, vocals
Stuart Elliott - drums, percussion
Ian Bairnson - electric and acoustic guitars
Eric Woolfson, Duncan Mackay – keyboards
Dean Ford, Colin Blunstone, Lenny Zakatek, John Miles, Jack Harris - vocals
Phil Kenzie - saxophone solos on «One More River»

Exact Audio Copy V1.3 from 2. September 2016

EAC extraction logfile from 21. September 2019, 10:31

The Alan Parsons Project / Pyramid [32RD-78]

Used drive : HL-DT-STBD-RE BH10LS38 Adapter: 1 ID: 0

Read mode : Secure
Utilize accurate stream : Yes
Defeat audio cache : Yes
Make use of C2 pointers : No

Read offset correction : 667
Overread into Lead-In and Lead-Out : No
Fill up missing offset samples with silence : Yes
Delete leading and trailing silent blocks : No
Null samples used in CRC calculations : Yes
Used interface : Native Win32 interface for Win NT & 2000

Used output format : User Defined Encoder
Selected bitrate : 128 kBit/s
Quality : High
Add ID3 tag : No
Command line compressor : C:\Program Files (x86)\Exact Audio Copy\Flac\flac.exe
Additional command line options : -V -8 -T "Date=%year%" -T "Genre=%genre%" %source%


TOC of the extracted CD

Track | Start | Length | Start sector | End sector
––––––––––––––––––––––––––––-
1 | 0:00.00 | 2:15.20 | 0 | 10144
2 | 2:15.20 | 3:57.07 | 10145 | 27926
3 | 6:12.27 | 4:04.30 | 27927 | 46256
4 | 10:16.57 | 4:16.60 | 46257 | 65516
5 | 14:33.42 | 5:02.70 | 65517 | 88236
6 | 19:36.37 | 5:30.10 | 88237 | 112996
7 | 25:06.47 | 2:43.00 | 112997 | 125221
8 | 27:49.47 | 4:20.13 | 125222 | 144734
9 | 32:09.60 | 5:34.50 | 144735 | 169834


Range status and errors

Selected range

Filename D:\Rips by Alder\The Alan Parsons Project - Pyramid [32RD-78].wav

Peak level 95.7 %
Extraction speed 7.2 X
Range quality 100.0 %
Test CRC 42E0CA7D
Copy CRC 42E0CA7D
Copy OK

No errors occurred


AccurateRip summary

Track 1 accurately ripped (confidence 5) [38378658] (AR v2)
Track 2 accurately ripped (confidence 5) [56EEC076] (AR v2)
Track 3 accurately ripped (confidence 5) [E0D800AC] (AR v2)
Track 4 accurately ripped (confidence 5) [6D1B05AD] (AR v2)
Track 5 accurately ripped (confidence 5) [BE838B7B] (AR v2)
Track 6 accurately ripped (confidence 5) [2B4563B6] (AR v2)
Track 7 accurately ripped (confidence 5) [126A0DEC] (AR v2)
Track 8 accurately ripped (confidence 5) [3A893BBF] (AR v2)
Track 9 accurately ripped (confidence 5) [5C830819] (AR v2)

All tracks accurately ripped

End of status report

–– CUETools DB Plugin V2.1.6

[CTDB TOCID: 6W6yWqakQZzhHprBz.VYMRL7PmQ-] found
Submit result: 6W6yWqakQZzhHprBz.VYMRL7PmQ- has been confirmed
Track | CTDB Status
1 | (13/13) Accurately ripped
2 | (13/13) Accurately ripped
3 | (13/13) Accurately ripped
4 | (13/13) Accurately ripped
5 | (13/13) Accurately ripped
6 | (13/13) Accurately ripped
7 | (13/13) Accurately ripped
8 | (13/13) Accurately ripped
9 | (13/13) Accurately ripped


==== Log checksum 1D9465A95643501D49FD23BD3871BB18271B75772148B4E5642699B9EAADC218 ====

[CUETools log; Date: 23.09.2019 14:57:43; Version: 2.1.6]
[CTDB TOCID: 6W6yWqakQZzhHprBz.VYMRL7PmQ-] found.
Track | CTDB Status
1 | (14/14) Accurately ripped
2 | (14/14) Accurately ripped
3 | (14/14) Accurately ripped
4 | (14/14) Accurately ripped
5 | (14/14) Accurately ripped
6 | (14/14) Accurately ripped
7 | (14/14) Accurately ripped
8 | (14/14) Accurately ripped
9 | (14/14) Accurately ripped
[AccurateRip ID: 000c1158-005aa273-7a08d809] found.
Track [ CRC | V2 ] Status
01 [6434b471|38378658] (0+5/5) Accurately ripped
02 [f39b2620|56eec076] (0+5/5) Accurately ripped
03 [76461c72|e0d800ac] (0+5/5) Accurately ripped
04 [9f91b674|6d1b05ad] (0+5/5) Accurately ripped
05 [1191e828|be838b7b] (0+5/5) Accurately ripped
06 [3080da06|2b4563b6] (0+5/5) Accurately ripped
07 [d7d93c61|126a0dec] (0+5/5) Accurately ripped
08 [dd1f60c1|3a893bbf] (0+5/5) Accurately ripped
09 [e5b6d93c|5c830819] (0+5/5) Accurately ripped

Track Peak [ CRC32 ] [W/O NULL] [ LOG ]
– 95,7 [42E0CA7D] [E9338398] CRC32
01 79,7 [B0F7C61F] [77C12649]
02 86,9 [1C6B341D] [A62F8367]
03 63,4 [EA3FF598] [BCD89172]
04 79,8 [4A96CEDB] [293C1A67]
05 95,0 [23F808ED] [B8065395]
06 76,7 [1CF4CAA8] [2EFC07A9]
07 95,7 [EDEA3169] [D7C7FA5A]
08 81,3 [9BAED585] [5D4A0B72]
09 66,4 [D10199F7] [E9EFDFB9]

The Alan Parsons Project - Pyramid (1978) {1987, Japanese Reissue} Re-Up


All thanks go to Alder

>>> Alan Parsons in my Blog <<<

DOWNLOAD: